<?xml version="1.0" standalone="no"?>
<!DOCTYPE svg PUBLIC "-//W3C//DTD SVG 1.1//EN" "http://www.w3.org/Graphics/SVG/1.1/DTD/svg11.dtd" >
<svg xmlns="http://www.w3.org/2000/svg">
<metadata>
This is a custom SVG webfont generated by Font Squirrel.
Copyright   : Copyright c 2011 Sol Matas wwwhuertatipograficacomar with Reserved Font Name Bitter
Designer    : Sol Matas
Foundry     : Sol Matas
Foundry URL : wwwhuertatipograficacomar
</metadata>
<defs>
<font id="BitterRegular" horiz-adv-x="1157" >
<font-face units-per-em="2048" ascent="1638" descent="-410" />
<missing-glyph horiz-adv-x="471" />
<glyph unicode=" "  horiz-adv-x="471" />
<glyph unicode="&#x09;" horiz-adv-x="471" />
<glyph unicode="&#xa0;" horiz-adv-x="471" />
<glyph unicode="!" horiz-adv-x="655" d="M195 123q0 66 37.5 104.5t95.5 38.5q61 0 97 -38t36 -105q0 -66 -38 -104.5t-95 -38.5q-61 0 -97 37.5t-36 105.5zM215 1536h236l-31 -1024l-174 -10z" />
<glyph unicode="&#x22;" horiz-adv-x="794" d="M133 1065v512h195l-41 -512h-154zM485 1065v512h197l-43 -512h-154z" />
<glyph unicode="#" horiz-adv-x="1413" d="M133 348v133h238l39 297h-226v133h244l43 318h164l-43 -318h297l43 318h164l-43 -318h227v-133h-246l-39 -297h234v-133h-252l-45 -348h-164l45 348h-297l-45 -348h-164l45 348h-219zM535 481h296l39 297h-297z" />
<glyph unicode="$" horiz-adv-x="1116" d="M133 51v328h143l41 -189q74 -41 195 -40q119 0 204 48t85 140q0 66 -49.5 113t-122 71.5t-157.5 58t-157.5 70.5t-122 112t-49.5 179q0 156 97.5 245t251.5 111v238h153v-231q74 -6 156 -24.5t127 -35.5l45 -16l-10 -307h-123l-52 184q-92 41 -194 41q-117 0 -181.5 -50 t-64.5 -124q0 -76 67.5 -128t164 -85t192.5 -72t164 -116.5t68 -192.5q0 -162 -99.5 -260.5t-259.5 -126.5v-279h-153v267q-194 4 -359 71z" />
<glyph unicode="%" horiz-adv-x="1669" d="M92 1085q0 172 94.5 270.5t243.5 98.5q143 0 230.5 -89t87.5 -259q0 -178 -93.5 -273.5t-244.5 -95.5q-145 0 -231.5 86t-86.5 262zM246 1095.5q0 -225.5 174 -225.5t174 225.5t-174 225.5t-174 -225.5zM317 0l830 1434h184l-829 -1434h-185zM901 328q0 172 94.5 270 t243.5 98q143 0 230 -89t87 -259q0 -178 -93 -273t-244 -95q-145 0 -231.5 86t-86.5 262zM1055 338q0 -225 174 -225t174 225t-174 225t-174 -225z" />
<glyph unicode="&#x26;" horiz-adv-x="1372" d="M143 399q0 197 216 343l61 36q-10 2 -26.5 8.5t-57.5 30t-73 55t-58.5 89t-26.5 124.5q0 184 126 276.5t351 92.5q80 0 177.5 -20.5t154.5 -40.5l57 -21l-10 -287h-131l-43 164q-82 31 -225 31q-121 0 -183.5 -55.5t-62.5 -149.5q0 -104 78 -169.5t188 -65.5h635v-123 l-164 -41v-246q0 -213 -134 -331.5t-367 -118.5q-244 0 -363 112.5t-119 306.5zM358 410q0 -127 76 -191.5t211 -64.5q131 0 204 68.5t73 197.5v256h-277q-117 0 -202 -77t-85 -189z" />
<glyph unicode="'" horiz-adv-x="440" d="M133 1065v512h195l-41 -512h-154z" />
<glyph unicode="(" horiz-adv-x="675" d="M152 573q0 289 81 517.5t259 486.5h184q-147 -225 -233.5 -488.5t-86.5 -504.5q0 -268 84 -556t234 -499h-182q-178 248 -259 493.5t-81 550.5z" />
<glyph unicode=")" horiz-adv-x="675" d="M-2 1577h184q178 -258 259 -486.5t81 -517.5q0 -305 -81 -550.5t-259 -493.5h-182q150 211 233.5 498.5t83.5 556.5q0 242 -86 505t-233 488z" />
<glyph unicode="*" horiz-adv-x="825" d="M51 1198l49 143l248 -94l27 -65l-62 -35l72 4l14 -70l-133 -231l-123 86l170 211zM322 1501l149 4l-14 -260l235 101l51 -144l-256 -59l172 -203l-118 -90l-142 231l19 70l69 -8l-59 39l29 63l-56 -45l-53 47z" />
<glyph unicode="+" horiz-adv-x="1269" d="M102 461v164h447v460h174v-460h444v-164h-444v-461h-174v461h-447z" />
<glyph unicode="," horiz-adv-x="542" d="M82 -238q109 143 108 218q0 16 -23.5 63t-23.5 86q0 59 37 98t96 39q133 0 134 -151q0 -178 -236 -430z" />
<glyph unicode="-" horiz-adv-x="768" d="M123 471v174h532v-174h-532z" />
<glyph unicode="." horiz-adv-x="532" d="M133 123q0 66 38 104.5t95 38.5q61 0 97 -38t36 -105q0 -66 -37.5 -104.5t-95.5 -38.5q-61 0 -97 37.5t-36 105.5z" />
<glyph unicode="/" horiz-adv-x="1036" d="M82 0l678 1434h215l-678 -1434h-215z" />
<glyph unicode="0" horiz-adv-x="1320" d="M143 707q0 747 543 747q281 0 396.5 -177t115.5 -540q0 -758 -532 -757q-522 0 -523 727zM369 717q0 -563 307 -563q158 0 227.5 141t69.5 432q0 287 -66.5 420t-230.5 133q-166 0 -236.5 -136t-70.5 -427z" />
<glyph unicode="1" horiz-adv-x="1048" d="M41 1120l477 314h172v-1260h307v-174h-837v174h315v1024l-348 -225z" />
<glyph unicode="2" horiz-adv-x="1167" d="M92 0v174q406 362 556.5 537.5t150.5 332.5q0 109 -74 172.5t-203 63.5q-49 0 -103 -10t-83 -21l-29 -10l-20 -195h-164l-10 328q225 82 419 82q242 0 367 -91t125 -298q0 -190 -147.5 -386t-497.5 -505h686v-174h-973z" />
<glyph unicode="3" horiz-adv-x="1126" d="M41 82l61 164q174 -92 369 -92q141 0 224 68.5t83 197.5q0 115 -91 180.5t-247 65.5h-153v163h164q141 0 224 62.5t83 183.5q0 92 -72 148.5t-194 56.5q-55 0 -111.5 -10t-85.5 -21l-29 -10l-20 -184h-164l-10 317q225 82 430 82q219 0 345 -87t126 -271 q0 -274 -266 -342q137 -29 217 -120t80 -204q0 -121 -49.5 -212t-131.5 -141t-173 -73.5t-189 -23.5q-119 0 -223.5 25.5t-150.5 50.5z" />
<glyph unicode="4" horiz-adv-x="1249" d="M41 492l655 972l236 -30v-922h235v-174h-235v-338h-211v338h-660zM266 512h455v676z" />
<glyph unicode="5" horiz-adv-x="1085" d="M41 82l61 164q164 -92 359 -92q123 0 210 72.5t87 203.5q0 135 -111.5 206t-308.5 71h-215l27 727h776l-6 -174h-578l-18 -390h65q276 0 435 -117.5t159 -312.5q0 -145 -78 -253.5t-191.5 -157.5t-242.5 -49q-119 0 -226.5 25.5t-155.5 50.5z" />
<glyph unicode="6" horiz-adv-x="1228" d="M123 604q0 383 191.5 616.5t555.5 233.5q45 0 84 -5t55 -10l15 -5l-10 -164q-61 10 -154 10q-98 0 -179 -27.5t-133 -71.5t-91 -98.5t-58.5 -107.5t-32 -97t-15.5 -72l-3 -28q16 12 46 28.5t121 45.5t181 29q186 0 313.5 -116t127.5 -314q0 -209 -143.5 -340t-348.5 -131 q-258 0 -390 171t-132 453zM338 553q0 -203 87 -301t220 -98q125 0 201 73.5t76 202.5q0 276 -287 277q-159 -3 -297 -93v-61z" />
<glyph unicode="7" horiz-adv-x="1028" d="M10 1055v379h983v-154l-547 -1280h-235l543 1249h-549l-41 -194h-154z" />
<glyph unicode="8" horiz-adv-x="1208" d="M102 389q0 80 34 147.5t89.5 111.5t90 66.5t69.5 37.5q-115 57 -178.5 130.5t-63.5 192.5q0 186 131.5 282.5t360.5 96.5q217 0 333.5 -101.5t116.5 -267.5q0 -72 -28.5 -132t-74.5 -98t-84 -59.5t-77 -35.5q133 -55 209 -136t76 -214q0 -188 -141.5 -309t-380.5 -121 q-231 0 -356.5 113.5t-125.5 295.5zM328 399q0 -115 72.5 -179t203.5 -64t204 64t73 179q0 45 -19.5 83t-43 62.5t-74 52.5t-83 41t-98.5 40q-236 -109 -235 -279zM358 1075q0 -53 22.5 -93t71 -70.5t88.5 -49t111 -43.5q31 12 64 29.5t70.5 48.5t61 78t23.5 100 q0 94 -67.5 149.5t-188 55.5t-188.5 -55.5t-68 -149.5z" />
<glyph unicode="9" horiz-adv-x="1228" d="M92 983q0 215 142.5 343t349.5 128q258 0 390 -171t132 -454q0 -385 -187.5 -617t-549.5 -232l-164 20l10 164q72 -10 164 -10q100 0 182 28.5t132 73.5t89 99.5t56.5 108.5t28 99t12.5 74l2 29q-16 -12 -46 -28.5t-121 -45.5t-182 -29q-186 0 -313 110.5t-127 309.5z M307 1004q0 -266 287 -267q159 2 297 92v62q0 197 -87 293t-220 96q-125 0 -201 -73.5t-76 -202.5z" />
<glyph unicode=":" horiz-adv-x="573" d="M154 123q0 66 37.5 104.5t95.5 38.5q61 0 97 -38t36 -105q0 -66 -38 -104.5t-95 -38.5q-61 0 -97 37.5t-36 105.5zM154 788.5q0 67.5 37.5 105.5t95.5 38q61 0 97 -38t36 -105.5t-38 -105.5t-95 -38q-61 0 -97 38t-36 105.5z" />
<glyph unicode=";" horiz-adv-x="573" d="M92 -238l92 -77q236 252 236 430q0 152 -133 151q-59 0 -96 -39t-37 -98q0 -39 23.5 -86t23.5 -63q0 -33 -27 -87.5t-54 -92.5zM152 788.5q0 67.5 38.5 105.5t94.5 38q61 0 97 -38t36 -105.5t-39 -105.5t-94 -38q-61 0 -97 38t-36 105.5z" />
<glyph unicode="&#x3c;" horiz-adv-x="1249" d="M102 471v143l1045 471v-174l-819 -368l819 -379v-174z" />
<glyph unicode="=" horiz-adv-x="1228" d="M113 276v164h1003v-164h-1003zM113 676v164h1003v-164h-1003z" />
<glyph unicode="&#x3e;" horiz-adv-x="1249" d="M102 -10v174l820 379l-820 368v174l1045 -471v-143z" />
<glyph unicode="?" horiz-adv-x="985" d="M174 1479q135 47 258 47q184 0 302 -74t118 -244q0 -104 -59.5 -197t-130 -150.5t-130 -126t-59.5 -128.5l4 -127l-184 -12q-18 139 -19 201q0 49 37 99t91.5 96t107.5 93.5t90 107.5t37 124q0 164 -215 164l-215 -27zM268 123q0 66 38 104.5t95 38.5q61 0 97.5 -38 t36.5 -105q0 -66 -38 -104.5t-96 -38.5q-61 0 -97 37.5t-36 105.5z" />
<glyph unicode="@" horiz-adv-x="1679" d="M133 707q0 338 199.5 542.5t527.5 204.5q322 0 509 -192.5t187 -524.5q0 -195 -93 -307.5t-253 -112.5q-51 0 -94 14.5t-65.5 34t-38 39t-20.5 33.5l-5 15q-12 -14 -34.5 -36t-86 -56.5t-121.5 -34.5q-111 0 -169 58t-58 171q0 227 332 227h111v99q0 113 -140 112 q-35 0 -87 -10t-87 -20l-35 -11l-37 117q154 63 287 64q262 0 262 -236v-367q0 -43 26 -66.5t71 -23.5q80 0 126 77t46 210q0 264 -146.5 418.5t-396.5 154.5q-256 0 -404.5 -155.5t-148.5 -427.5q0 -276 135 -430t377 -154q59 0 120.5 13.5t93.5 25.5l32 12l82 -123 q-14 -8 -41 -22t-115 -36.5t-182 -22.5q-322 0 -494 187t-172 540zM678 555q0 -43 28.5 -68.5t77.5 -25.5q94 2 177 92v119h-99q-100 0 -142 -27t-42 -90z" />
<glyph unicode="A" horiz-adv-x="1484" d="M10 0v123l168 39l467 1261l205 11l455 -1272l170 -39v-123h-594v123l190 39l-78 227h-532l-80 -227l192 -39v-123h-563zM516 553h422l-207 616z" />
<glyph unicode="B" horiz-adv-x="1290" d="M82 0v123l174 41v1106l-174 41v112l379 11h235q201 0 321 -90.5t120 -268.5q0 -264 -267 -332q158 -37 238 -122.5t80 -210.5q0 -410 -522 -410h-584zM461 164h215q297 0 297 235q0 147 -89 207t-270 60h-153v-502zM461 819h153q143 0 225.5 58.5t82.5 177.5 q0 104 -65.5 159.5t-170.5 55.5h-225v-451z" />
<glyph unicode="C" horiz-adv-x="1320" d="M82 686q0 352 185.5 560t500.5 208q100 0 215 -25.5t180 -51.5l66 -25l-10 -346h-154l-55 233q-109 41 -262 41q-207 0 -319 -150.5t-112 -433.5q0 -266 120 -399t321 -133q192 0 391 150l18 14l82 -133q-8 -8 -23.5 -22.5t-67.5 -52.5t-108.5 -65.5t-141.5 -51 t-171 -23.5q-311 0 -483 182t-172 524z" />
<glyph unicode="D" horiz-adv-x="1495" d="M123 0v123l174 41v1106l-174 41v112l389 11h256q303 0 474 -181.5t171 -515.5q0 -338 -184.5 -537.5t-491.5 -199.5h-614zM512 164h236q201 0 315.5 140t114.5 423q0 276 -111 409.5t-309 133.5h-246v-1106z" />
<glyph unicode="E" horiz-adv-x="1280" d="M123 0v123l174 41v1106l-174 41v112l389 11h625v-349h-133l-52 185h-440v-441h471v-163h-471v-502h471l41 205h133v-369h-1034z" />
<glyph unicode="F" horiz-adv-x="1167" d="M82 0v123l174 41v1106l-174 41v112l389 11h625v-338h-133l-52 174h-440v-461h471v-164h-471v-481l205 -41v-123h-594z" />
<glyph unicode="G" horiz-adv-x="1538" d="M123 686q0 352 185.5 560t500.5 208q100 0 215 -25.5t180 -51.5l66 -25l-10 -338h-134l-61 225q-123 41 -277 41q-207 0 -318.5 -150.5t-111.5 -433.5q0 -268 122 -405t329 -137q63 0 135 13t112 26l40 12v336l-174 41v112l532 11v-123l-154 -41v-439 q-25 -14 -68.5 -34.5t-181 -54t-272.5 -33.5q-311 0 -483 182t-172 524z" />
<glyph unicode="H" horiz-adv-x="1628" d="M82 0v123l174 41v1106l-174 41v112l584 11v-123l-195 -41v-451h686v451l-194 41v112l583 11v-123l-174 -41v-1106l174 -41v-123h-583v123l194 41v491h-686v-491l195 -41v-123h-584z" />
<glyph unicode="I" horiz-adv-x="727" d="M82 0v123l174 41v1106l-174 41v112l563 11v-123l-174 -41v-1106l174 -41v-123h-563z" />
<glyph unicode="J" horiz-adv-x="735" d="M-41 -297l18 154h103q184 0 184 194v1219l-174 41v112l563 11v-123l-174 -41v-1178q0 -186 -103.5 -292.5t-285.5 -106.5z" />
<glyph unicode="K" horiz-adv-x="1454" d="M82 0v123l174 41v1106l-174 41v112l584 11v-123l-195 -41v-451h188l355 604l338 11v-123l-203 -41l-311 -518l422 -588l174 -41v-123h-584v123l174 41l-352 491h-201v-491l195 -41v-123h-584z" />
<glyph unicode="L" horiz-adv-x="1085" d="M72 0v123l174 41v1106l-174 41v112l563 11v-123l-174 -41v-1106h420l41 235h143v-399h-993z" />
<glyph unicode="M" horiz-adv-x="1792" d="M82 0v123l174 41v1106l-174 41v112l461 11l370 -820l387 809l431 11v-123l-175 -41v-1106l175 -41v-123h-574v123l195 41v1024l-62 -154l-317 -645l-164 -10l-317 665l-52 144v-1024l195 -41v-123h-553z" />
<glyph unicode="N" horiz-adv-x="1617" d="M82 0v123l174 41v1106l-174 41v112l430 11l676 -1145v981l-174 41v112l532 11v-123l-174 -41v-1270h-256l-676 1128v-964l195 -41v-123h-553z" />
<glyph unicode="O" horiz-adv-x="1546" d="M123 707q0 340 180 543.5t485 203.5q297 0 466 -192.5t169 -524.5q0 -338 -188 -547.5t-487 -209.5q-301 0 -463 187t-162 540zM358 717q0 -563 400 -563q205 0 317.5 144t112.5 429q0 553 -410 553q-420 0 -420 -563z" />
<glyph unicode="P" horiz-adv-x="1208" d="M82 0v123l174 41v1106l-174 41v112l389 11h215q227 0 349 -113t122 -307q0 -236 -144.5 -359t-408.5 -123h-133v-368l174 -41v-123h-563zM471 696h133q338 0 338 287q0 127 -69.5 207t-196.5 80h-205v-574z" />
<glyph unicode="Q" horiz-adv-x="1515" d="M123 707q0 338 189.5 542.5t496.5 204.5q303 0 469 -191.5t166 -525.5q0 -276 -125 -468.5t-342 -258.5l221 -133q141 -82 215 -82q33 0 81 18.5t81 35.5l33 18l82 -123q-205 -123 -318 -123q-78 0 -266 113l-408 250q-276 20 -425.5 205.5t-149.5 517.5zM348 717 q0 -272 108.5 -417.5t321.5 -145.5q215 0 328 145t113 428q0 553 -420 553q-219 0 -335 -141.5t-116 -421.5z" />
<glyph unicode="R" horiz-adv-x="1331" d="M82 0v123l174 41v1106l-174 41v112l389 11h225q217 0 339 -98.5t122 -270.5q0 -301 -266 -399q49 -43 123 -185l162 -325l145 -33v-123h-307l-174 379q-72 154 -124 200t-153 46h-92v-461l174 -41v-123h-563zM471 778h154q150 0 233.5 67.5t83.5 188.5q0 102 -71.5 169 t-184.5 67h-215v-492z" />
<glyph unicode="S" horiz-adv-x="1224" d="M143 61v359h164l41 -215q10 -6 30 -15q20 -10 78 -24q51 -12 102 -12h15q125 2 221 59q94 56 93 156q-1 76 -57 130q-54 52 -136 78.5t-176 64.5t-176 80t-137 125t-58 200v6q1 199 137 297q138 100 349 104h15q80 0 180 -18q108 -20 172 -42l65 -22l-10 -348h-133 l-70 219q-12 4 -32.5 10.5t-78 16.5t-106.5 10q-131 -2 -203 -60q-70 -56 -70 -135q0 -65 43 -113q41 -46 105.5 -76t142.5 -56.5t156 -59t142.5 -74.5t105.5 -113t43 -165v-11q0 -209 -148 -321q-152 -114 -387 -119h-5z" />
<glyph unicode="T" d="M20 1065v369h1117v-369h-133l-52 205h-266v-1106l205 -41v-123h-625v123l205 41v1106h-266l-51 -205h-134z" />
<glyph unicode="U" horiz-adv-x="1617" d="M82 1311v112l584 11v-123l-195 -41v-717q0 -225 78 -312t260 -87q190 0 264 95t74 335v686l-195 41v112l584 11v-123l-174 -41v-686q0 -301 -127 -452.5t-436 -151.5q-293 0 -418 140t-125 433v717z" />
<glyph unicode="V" horiz-adv-x="1433" d="M10 1311v112l574 11v-123l-187 -39l322 -996l342 994l-191 41v112l553 11v-123l-159 -41l-455 -1270h-205l-436 1270z" />
<glyph unicode="W" horiz-adv-x="2119" d="M10 1311v112l574 11v-123l-178 -41l219 -928l338 1081l194 11l332 -1115l254 951l-187 41v112l553 11v-123l-161 -41l-361 -1270h-225l-246 942l-59 221l-64 -231l-276 -932h-205l-342 1270z" />
<glyph unicode="X" horiz-adv-x="1433" d="M20 0v123l134 31l430 573l-379 543l-154 41v112l543 11v-123l-133 -41l266 -389l266 389l-143 41v112l543 11v-123l-185 -41l-368 -533l399 -573l174 -41v-123h-553v123l123 31l-287 419l-307 -409l174 -41v-123h-543z" />
<glyph unicode="Y" horiz-adv-x="1320" d="M20 1311v112l512 11v-123l-139 -41l273 -574l301 574l-158 41v112l491 11v-123l-126 -37l-406 -739v-371l174 -41v-123h-563v123l174 41v366l-395 742z" />
<glyph unicode="Z" horiz-adv-x="1259" d="M82 0v143l819 1127h-573l-52 -205h-133v369h1035v-144l-820 -1126h635l41 205h133v-369h-1085z" />
<glyph unicode="[" horiz-adv-x="706" d="M184 -471v2048l441 -10v-133l-246 -23v-1716l246 -23v-133z" />
<glyph unicode="\" horiz-adv-x="1036" d="M61 1434h215l678 -1434h-215z" />
<glyph unicode="]" horiz-adv-x="706" d="M82 -328l246 23v1716l-246 23v133l440 10v-2048l-440 10v133z" />
<glyph unicode="^" horiz-adv-x="1167" d="M123 655l389 779h143l389 -779h-178l-288 574l-281 -574h-174z" />
<glyph unicode="_" horiz-adv-x="1024" d="M0 -164h1024v-143h-1024v143z" />
<glyph unicode="`" horiz-adv-x="860" d="M195 1556l102 154l379 -297l-82 -113z" />
<glyph unicode="a" d="M92 287q0 317 471 317h164v164q0 184 -195 184l-206 -30l-29 -154h-133l-10 256q225 82 399 82q186 0 282.5 -74t96.5 -244v-624l164 -41v-113l-318 -10l-43 143q-163 -163 -334 -163h-2q-145 0 -226 80.5t-81 226.5zM301 297q0 -70 40 -112t110 -42q136 0 263 148l13 16 v164h-143q-154 0 -218.5 -41t-64.5 -133z" />
<glyph unicode="b" horiz-adv-x="1198" d="M0 1454v113l369 10v-590q152 119 307 119q215 0 322.5 -142.5t107.5 -390.5q0 -268 -146.5 -430.5t-416.5 -162.5q-225 0 -379 51v1382zM369 164q53 -20 204 -21q168 0 243 113t75 297q0 180 -62.5 284.5t-193.5 104.5q-162 0 -256 -119l-10 -14v-645z" />
<glyph unicode="c" horiz-adv-x="1044" d="M82 543q0 250 145.5 406.5t386.5 156.5q82 0 169 -20.5t133 -41.5l47 -20l-11 -276h-133l-31 174q-82 20 -184 20q-147 0 -227 -95t-80 -284q0 -205 84 -312.5t233 -107.5q86 0 166 31t116 62l36 30l72 -123q-8 -6 -21.5 -17t-57.5 -40t-89 -50.5t-112 -38.5t-130 -17 q-250 0 -381 148t-131 415z" />
<glyph unicode="d" horiz-adv-x="1259" d="M92 512q0 272 137.5 433t405.5 161q100 0 194 -33v340l-174 41v113l379 10v-1413l174 -41v-113l-348 -10l-16 117q-137 -137 -322 -137q-215 0 -322.5 142t-107.5 390zM307 532q0 -180 62.5 -284.5t193.5 -104.5q78 0 144.5 39t94.5 77l27 38v604q-72 41 -215 41 q-307 0 -307 -410z" />
<glyph unicode="e" horiz-adv-x="1085" d="M82 532q0 248 140 411t362 163q430 0 430 -481l-10 -109l-707 -4q0 -168 82 -268.5t215 -100.5q189 0 336 107l8 6l72 -106q-20 -18 -59.5 -47t-154 -76t-223.5 -47q-242 0 -366.5 146t-124.5 406zM305 666h492q0 125 -53.5 202.5t-170.5 77.5q-119 0 -188.5 -79.5 t-79.5 -200.5z" />
<glyph unicode="f" horiz-adv-x="901" d="M143 922v133l185 20v123q0 186 98 292.5t281 106.5q189 -1 307 -71v-256h-144l-30 164q-51 10 -123 10q-102 0 -143.5 -52.5t-41.5 -152.5v-164h271l-6 -153h-265v-758l199 -51v-113h-577v113l174 51v758h-185z" />
<glyph unicode="g" horiz-adv-x="1198" d="M92 -215q0 51 22.5 96t53.5 74t62.5 49.5t54.5 28.5l22 8q-14 2 -34.5 6t-54.5 34t-34 77q0 31 27 88t53 100l27 43q-6 2 -17.5 9.5t-38 33t-47 57t-38 90t-17.5 128.5q0 195 122 297t329 102q59 0 110 -10.5t73 -19.5l21 -9l359 8v-112l-199 -29q55 -74 56 -207 q0 -201 -121 -300t-330 -99l-154 18l-10 -192h318q201 0 305 -76t104 -221q0 -174 -135 -271.5t-397 -97.5q-492 0 -492 297zM297 -184q0 -100 79 -137t238 -37q307 0 308 194q0 94 -67 129t-200 35h-225q-6 -2 -14 -7t-32 -22.5t-41 -37t-31.5 -51.5t-14.5 -66z M395.5 537.5q57.5 -66.5 167.5 -66.5q123 0 179.5 58.5t56.5 187.5q-1 246 -226 246q-235 0 -235 -244q0 -115 57.5 -181.5z" />
<glyph unicode="h" horiz-adv-x="1331" d="M51 0v113l174 51v1249l-174 41v113l379 10v-619q176 147 358 148q164 0 246 -97.5t82 -271.5v-573l154 -51v-113h-492v113l133 49v555q0 111 -41 163t-137 52q-154 0 -289 -148l-14 -16v-604l133 -51v-113h-512z" />
<glyph unicode="i" horiz-adv-x="686" d="M82 0v113l174 51v758l-174 41v112l379 10v-921l153 -51v-113h-532zM215 1423.5q0 67.5 38 105.5t95 38q133 0 133 -144q0 -66 -41 -104.5t-92 -38.5q-61 0 -97 38t-36 105.5z" />
<glyph unicode="j" horiz-adv-x="591" d="M-82 -481l19 143h102q102 0 143 52.5t41 152.5v1055l-174 41v112l379 10v-1177q0 -186 -98.5 -293t-280.5 -107zM172 1423.5q0 67.5 39 105.5t94 38q133 0 133 -144q0 -66 -41 -104.5t-92 -38.5q-61 0 -97 38t-36 105.5z" />
<glyph unicode="k" horiz-adv-x="1198" d="M51 0v113l174 51v1249l-174 41v113l379 10v-901h174l154 258l-92 29v112l450 10v-122l-145 -25h-2l-211 -313l264 -461h2l154 -51v-113h-277l-293 522h-178v-358l133 -51v-113h-512z" />
<glyph unicode="l" horiz-adv-x="649" d="M51 0v113l174 51v1249l-174 41v113l383 10v-1413l205 -51v-113h-588z" />
<glyph unicode="m" horiz-adv-x="2007" d="M82 0v113l174 51v758l-174 41v112l338 10l18 -145q57 55 159.5 110.5t211.5 55.5q207 0 285 -176q27 27 69.5 59.5t135 74.5t176.5 42q317 0 317 -369v-573l154 -51v-113h-492v113l133 51v553q0 113 -39 164t-135 51q-152 0 -273 -146l-14 -18v-604l134 -51v-113h-472 v113l134 51v553q0 113 -39 164t-135 51q-152 0 -273 -146l-14 -18v-604l133 -51v-113h-512z" />
<glyph unicode="n" horiz-adv-x="1361" d="M82 0v113l174 51v758l-174 41v112l338 10l18 -145q37 31 84 63.5t133 67.5t164 35q164 0 246 -97.5t82 -271.5v-573l153 -51v-113h-491v113l133 51v553q0 111 -43 163t-141 52q-153 0 -283 -147l-14 -17v-604l133 -51v-113h-512z" />
<glyph unicode="o" horiz-adv-x="1167" d="M82 532q0 260 145.5 417t376.5 157q227 0 354 -146.5t127 -396.5q0 -262 -141 -422.5t-371 -160.5q-233 0 -362 140t-129 412zM297 542.5q0 -399.5 287 -399.5q150 0 218 102.5t68 307.5q0 389 -276 389q-297 0 -297 -399.5z" />
<glyph unicode="p" horiz-adv-x="1259" d="M51 963v112l348 10l17 -114q145 135 311 135q217 0 328.5 -143.5t111.5 -389.5q0 -272 -139 -432.5t-414 -160.5q-88 0 -184 28v-325l215 -41v-113h-584v113l164 41v1239zM430 184q61 -41 215 -41q307 0 307 410q0 178 -66.5 283.5t-199.5 105.5q-82 0 -145.5 -36 t-86.5 -71l-24 -36v-615z" />
<glyph unicode="q" horiz-adv-x="1187" d="M92 512q0 268 146.5 431t416.5 163q225 0 379 -41v-1382l164 -41v-113h-573v113l204 41v415q-151 -118 -304 -118h-3q-430 0 -430 532zM307 532q0 -180 62.5 -284.5t193.5 -104.5q162 0 256 120q10 14 10 13v646q-61 20 -204 20q-168 0 -243 -112.5t-75 -297.5z" />
<glyph unicode="r" horiz-adv-x="952" d="M82 0v113l174 51v758l-174 41v112l338 10l18 -149q152 170 310 170q45 0 91 -8t69 -16l24 -7l-10 -297h-134l-30 154q-176 0 -297 -160v-608l205 -51v-113h-584z" />
<glyph unicode="s" horiz-adv-x="964" d="M94 328h144l22 -176q8 -2 24.5 -6.5t64.5 -9.5q34 -4 66 -4q13 0 25 1q226 8 226 156v6q-2 61 -61.5 100t-142.5 63.5t-166 56.5t-141.5 98.5t-60.5 168.5v6q0 152 102 232q104 82 273 86h10q157 0 340 -62l-6 -276h-133l-33 160q-10 4 -26.5 8t-62.5 11q-36 5 -69 5h-18 q-80 -4 -127 -34q-45 -29 -45 -97v-6q2 -61 61.5 -101t142.5 -65.5t166 -57.5t141 -96.5t60 -160.5v-5q0 -164 -120 -253q-122 -90 -312 -96q-21 -1 -42 -1q-59 0 -121 8q-85 11 -132 24l-47 14z" />
<glyph unicode="t" horiz-adv-x="808" d="M41 922v133l205 20v258l205 41v-299h297v-153h-297v-658q0 -125 102 -125q66 0 160 51l55 -108q-139 -102 -287 -102q-104 0 -169.5 68.5t-65.5 227.5v646h-205z" />
<glyph unicode="u" horiz-adv-x="1331" d="M41 963v112l379 10v-718q0 -109 43 -161t141 -52q78 0 151.5 39.5t109.5 80.5l36 41v607l-174 41v112l379 10v-921l174 -41v-113l-338 -10l-20 143q-35 -31 -83 -62.5t-134.5 -66t-161.5 -34.5q-164 0 -246 96t-82 270v576z" />
<glyph unicode="v" horiz-adv-x="1144" d="M10 963v112l461 10v-122l-143 -21l243 -758l246 748l-141 31v112l459 10v-122l-113 -21l-348 -942h-225l-336 932z" />
<glyph unicode="w" horiz-adv-x="1699" d="M10 963v112l461 10v-122l-154 -21l175 -758l268 891l194 31l254 -922l164 748l-143 31v112l461 10v-122l-119 -21l-250 -942h-236l-194 635l-49 196l-43 -196l-195 -635h-235l-256 932z" />
<glyph unicode="x" d="M10 0v113l180 47l261 383l-263 391l-157 29v112l467 10v-122l-72 -13l158 -264l245 389l297 10v-122l-174 -31l-256 -379l262 -393l189 -47v-113h-500v113l82 24l-168 271l-254 -408h-297z" />
<glyph unicode="y" horiz-adv-x="1181" d="M20 963v112l482 10v-122l-144 -21l246 -717l225 707l-143 31v112l485 10v-122l-133 -21l-290 -811q-102 -268 -152 -356q-151 -266 -401 -267l-132 11l19 143h102q100 0 175 84t151 250l-367 936z" />
<glyph unicode="z" horiz-adv-x="1034" d="M133 0v154l598 778h-385l-29 -154h-143v307h789v-153l-601 -778h418l29 163h143v-317h-819z" />
<glyph unicode="{" horiz-adv-x="757" d="M61 532v144q109 0 152 55t43 158v350q0 190 81 269t267 79h92v-133q-145 0 -198.5 -46t-53.5 -169v-350q0 -213 -190 -285q190 -72 190 -285v-432q0 -123 53.5 -169t198.5 -46v-133h-92q-186 0 -267 79t-81 269v432q0 102 -43 157.5t-152 55.5z" />
<glyph unicode="|" horiz-adv-x="573" d="M205 -471v2017h164v-2017h-164z" />
<glyph unicode="}" horiz-adv-x="768" d="M82 -328q145 0 198.5 46t53.5 169v432q0 213 190 285q-190 72 -190 285v350q0 123 -53.5 169t-198.5 46v133h92q186 0 267 -78.5t81 -269.5v-350q0 -102 43 -157.5t152 -55.5v-144q-109 0 -152 -55t-43 -158v-432q0 -190 -81 -269t-267 -79h-92v133z" />
<glyph unicode="~" horiz-adv-x="1282" d="M123 502q4 8 11 22.5t36 49t60.5 61.5t87 49.5t114.5 22.5q98 0 230.5 -72t209.5 -72q103 0 188 116l5 7l94 -74q-4 -8 -13 -22.5t-38 -51t-60.5 -65.5t-83 -51.5t-102.5 -22.5q-98 0 -241.5 72t-219.5 72q-103 0 -180 -108l-4 -7z" />
<glyph unicode="&#xa1;" horiz-adv-x="645" d="M184 983q0 66 39 104.5t94 38.5q61 0 97.5 -37.5t36.5 -105.5q0 -66 -39 -104.5t-95 -38.5q-61 0 -97 37.5t-36 105.5zM205 -430l31 1024l174 10l30 -1034h-235z" />
<glyph unicode="&#xa2;" horiz-adv-x="1044" d="M92 737q0 195 103.5 331t296.5 169v197h153v-189q74 -4 150.5 -26.5t116.5 -41.5l40 -20l-10 -266h-133l-31 174q-72 20 -174 20q-154 0 -225.5 -78.5t-71.5 -248.5q0 -369 307 -369q162 0 282 98q5 4 5 5l80 -113q-16 -14 -47 -37t-119 -63.5t-170 -51.5v-227h-153v231 q-197 29 -298.5 162t-101.5 344z" />
<glyph unicode="&#xa3;" horiz-adv-x="1280" d="M123 0v123l113 31q68 18 90 74.5t22 191.5q0 37 -14 266h-211v139l201 23q-6 98 -7 196q0 193 101.5 301.5t308.5 108.5q109 0 214.5 -15.5t155.5 -30.5l50 -15v-287h-133l-31 170q-123 14 -246 14q-215 0 -215 -205q0 -131 8 -235h340v-164h-329q12 -184 12 -246 q0 -90 -23.5 -159.5t-46.5 -93.5l-22 -23h520l43 215h133v-379h-1034z" />
<glyph unicode="&#xa4;" horiz-adv-x="1183" d="M102 225l160 160q-55 92 -55 219q0 125 63 223l-168 168l101 107l170 -168q102 70 233 70q123 0 215 -60l160 158l100 -107l-155 -155q59 -96 59 -226q0 -125 -65 -227l161 -162l-100 -106l-166 164q-100 -68 -229 -68t-224 61l-159 -157zM381 610q0 -119 53 -185.5 t162 -66.5t162 67t53 185q0 250 -215 250t-215 -250z" />
<glyph unicode="&#xa5;" horiz-adv-x="1320" d="M20 1311v112l512 11v-123l-139 -41l273 -553l301 553l-158 41v112l491 11v-123l-126 -37l-306 -537h252v-143h-921v143h254l-295 535zM199 317v144h921v-144h-352v-153l174 -41v-123h-563v123l174 41v153h-354z" />
<glyph unicode="&#xa6;" horiz-adv-x="614" d="M215 297h164v-840h-164v840zM215 748v819h164v-819h-164z" />
<glyph unicode="&#xa7;" horiz-adv-x="1116" d="M154 727q0 201 147 301q-55 84 -55 191q0 168 109.5 273t281.5 105t297 -61l-10 -328h-123l-49 215q-59 10 -111 11q-92 0 -146.5 -52.5t-54.5 -132.5q0 -74 57.5 -137t138.5 -114.5t162 -107.5t138 -140t57 -187q0 -201 -147 -301q57 -88 57 -190q0 -168 -108.5 -273.5 t-280.5 -105.5t-297 61l10 328h131l43 -215q45 -10 117 -10q86 0 138.5 53t52.5 131q0 72 -57.5 136.5t-138.5 115.5t-163 107.5t-139 140.5t-57 186zM348 758q0 -78 56.5 -138.5t175 -135t165.5 -113.5q54 57 54 161q0 78 -56.5 138.5t-174 135.5t-165.5 114 q-55 -55 -55 -162z" />
<glyph unicode="&#xa8;" horiz-adv-x="1054" d="M205 1433.5q0 57.5 32.5 90t79.5 32.5q53 0 83 -32.5t30 -90t-32.5 -90t-80.5 -32.5q-53 0 -82.5 32.5t-29.5 90zM625 1433.5q0 57.5 32.5 90t79.5 32.5q53 0 83 -32.5t30 -90t-33 -90t-80 -32.5q-53 0 -82.5 32.5t-29.5 90z" />
<glyph unicode="&#xa9;" horiz-adv-x="1679" d="M92 706.5q0 321.5 212 534.5t536 213q326 0 536.5 -203.5t210.5 -523.5q0 -322 -221 -534.5t-547 -212.5q-324 0 -525.5 202.5t-201.5 524zM256 717q0 -262 156.5 -426t416.5 -164q262 0 428 165t166 425t-165.5 425t-428.5 165q-260 0 -416.5 -164t-156.5 -426zM471 702 q0 195 102.5 310.5t280.5 115.5q57 0 121.5 -15t101.5 -32l37 -16l-4 -217h-115l-28 139q-55 16 -127 17q-195 0 -195 -291q0 -262 205 -262q49 0 103.5 22.5t84.5 44.5l31 23l55 -95q-14 -14 -38.5 -35.5t-98.5 -57.5t-147 -36q-172 0 -270.5 98.5t-98.5 286.5z" />
<glyph unicode="&#xaa;" horiz-adv-x="958" d="M133 877q0 227 332 227h110v102q0 49 -33.5 79t-92.5 30l-146 -21l-20 -106h-113l-10 205q195 61 317 61q262 0 262 -235v-426l117 -29v-92l-223 -10l-33 106q-12 -14 -34.5 -33.5t-85 -53.5t-120.5 -34q-111 0 -169 58.5t-58 171.5zM150 338v143h706v-143h-706zM293 877 q0 -43 28.5 -69t77.5 -26q94 2 176 92v119h-98q-96 0 -140 -25.5t-44 -90.5z" />
<glyph unicode="&#xab;" horiz-adv-x="1105" d="M123 481v123l287 328l122 -82l-225 -307l225 -307l-122 -82zM563 481v123l297 328l123 -82l-235 -307l235 -307l-123 -82z" />
<glyph unicode="&#xac;" horiz-adv-x="1259" d="M123 563v164h1024v-553h-174v389h-850z" />
<glyph unicode="&#xad;" horiz-adv-x="768" d="M123 471v174h532v-174h-532z" />
<glyph unicode="&#xae;" horiz-adv-x="1474" d="M113 921.5q0 268.5 178 446.5t446 178q270 0 447.5 -169t177.5 -435t-187.5 -445.5t-457.5 -179.5q-268 0 -436 168t-168 436.5zM266 932q0 -217 124 -349t337 -132q215 0 348 133t133 348t-133 348t-348 133q-213 0 -337 -132t-124 -349zM440 604v82l82 21v475l-82 16 v76l308 6q104 0 171.5 -50t67.5 -138q0 -133 -127 -181q37 -37 58 -75l65 -129l82 -21v-82h-176l-82 174q-33 72 -52.5 89.5t-60.5 17.5h-39v-178l82 -21v-82h-297zM655 979h72q55 0 89 26.5t34 75.5q0 45 -29.5 71t-83.5 26h-82v-199z" />
<glyph unicode="&#xaf;" horiz-adv-x="716" d="M82 1352v153h553v-153h-553z" />
<glyph unicode="&#xb0;" horiz-adv-x="839" d="M102 1198q0 137 89.5 222t228.5 85q141 0 229 -81t88 -216q0 -143 -89 -230t-228 -87q-141 0 -229.5 82t-88.5 225zM246 1208q0 -92 45 -143t129 -51t129 51t45 143q0 82 -48 128t-126 46t-126 -46t-48 -128z" />
<glyph unicode="&#xb1;" horiz-adv-x="1259" d="M113 0v160h1034v-160h-1034zM113 618v160h430v328h174v-328h430v-160h-430v-331h-174v331h-430z" />
<glyph unicode="&#xb2;" horiz-adv-x="798" d="M72 573v142q39 33 97 80t87 69.5t71 58t60.5 53t45 44.5t36.5 44t22.5 39.5t16.5 42t4 42.5q0 123 -154 123q-33 0 -64.5 -5.5t-46.5 -10.5l-16 -5l-14 -123h-123l-6 224q147 53 277 53q332 0 331 -246q0 -117 -75.5 -209t-303.5 -270h400v-146h-645z" />
<glyph unicode="&#xb3;" horiz-adv-x="774" d="M41 639l41 123q123 -61 252 -62q80 0 124 34t44 95q0 119 -193 119h-84v125h94q172 0 173 131q0 106 -144 107l-139 -19l-10 -114h-119l-8 227q164 39 286 39q145 0 226.5 -57.5t81.5 -161.5q0 -84 -49.5 -135.5t-131.5 -67.5q78 -8 137.5 -61.5t59.5 -129.5 q0 -133 -97.5 -200.5t-258.5 -67.5q-68 0 -138.5 19.5t-108.5 38.5z" />
<glyph unicode="&#xb4;" horiz-adv-x="860" d="M184 1413l379 297l103 -154l-400 -256z" />
<glyph unicode="&#xb5;" horiz-adv-x="1341" d="M51 963v112l379 10v-739q4 -98 47 -145t137 -47q78 0 152 39.5t110 80.5l35 41v607l-174 41v112l379 10v-921l174 -41v-113l-338 -10l-20 143q-197 -164 -379 -163q-61 0 -123 20v-471h-205v801v16v576z" />
<glyph unicode="&#x3bc;" horiz-adv-x="1341" d="M51 963v112l379 10v-739q4 -98 47 -145t137 -47q78 0 152 39.5t110 80.5l35 41v607l-174 41v112l379 10v-921l174 -41v-113l-338 -10l-20 143q-197 -164 -379 -163q-61 0 -123 20v-471h-205v801v16v576z" />
<glyph unicode="&#xb6;" horiz-adv-x="1290" d="M123 1034q0 174 112.5 287t307.5 113h262l352 -11v-112l-174 -41v-1618h-178v1618h-162v-1618h-356v123l184 41v811q-150 16 -249 129.5t-99 277.5z" />
<glyph unicode="&#xb7;" horiz-adv-x="532" d="M129 625q0 70 39 108.5t98 38.5q66 0 101.5 -38t35.5 -109q0 -70 -38.5 -109t-98.5 -39q-66 0 -101.5 38t-35.5 110z" />
<glyph unicode="&#xb8;" horiz-adv-x="892" d="M225 -391l49 84q84 -43 158 -43q51 0 82 24.5t31 63.5q0 47 -45 73.5t-123 26.5v162h123v-88q84 -14 131 -61.5t47 -116.5q0 -82 -61.5 -132.5t-161.5 -50.5q-59 0 -116.5 14.5t-85.5 28.5z" />
<glyph unicode="&#xb9;" horiz-adv-x="716" d="M31 1239l309 195h152v-727h184v-134h-553v134h194v542l-215 -133z" />
<glyph unicode="&#xba;" horiz-adv-x="1013" d="M123 1034.5q0 190.5 110.5 305t288.5 114.5q176 0 272.5 -102.5t96.5 -286.5q0 -193 -106.5 -306.5t-282.5 -113.5q-178 0 -278.5 99.5t-100.5 290zM143 338v143h727v-143h-727zM297 1044q0 -125 59.5 -190.5t155.5 -65.5t150.5 67t54.5 200q0 121 -55.5 188.5 t-149.5 67.5q-96 0 -155.5 -66.5t-59.5 -200.5z" />
<glyph unicode="&#xbb;" horiz-adv-x="1105" d="M123 236l235 307l-235 307l123 82l297 -328v-123l-297 -327zM573 236l226 307l-226 307l123 82l287 -328v-123l-287 -327z" />
<glyph unicode="&#xbc;" horiz-adv-x="1986" d="M82 1239l309 195h152v-727h174v-134h-543v134h195v542l-215 -133zM461 0l829 1434h185l-830 -1434h-184zM1124 307l416 574l201 -21v-541h143v-133h-143v-186h-174v186h-430zM1303 319h264v367z" />
<glyph unicode="&#xbd;" horiz-adv-x="1945" d="M82 1239l309 195h152v-727h174v-134h-543v134h195v542l-215 -133zM461 0l829 1434h185l-830 -1434h-184zM1188 0v141q39 33 97 80t87 69.5t71 58.5t60.5 53.5t45 44t36.5 44t22.5 40t16.5 42t4 41.5q0 123 -153 123q-33 0 -65 -5t-47 -10l-15 -5l-15 -123h-123l-6 223 q147 53 277 53q332 0 331 -245q0 -117 -75.5 -209t-302.5 -271h399v-145h-645z" />
<glyph unicode="&#xbe;" horiz-adv-x="1972" d="M72 639l41 123q123 -61 252 -62q80 0 123.5 34t43.5 95q0 119 -192 119h-84v125h94q172 0 172 131q0 106 -143 107l-139 -19l-11 -114h-118l-9 227q164 39 287 39q145 0 226 -57.5t81 -161.5q0 -84 -49 -135.5t-131 -67.5q78 -8 137.5 -61.5t59.5 -129.5 q0 -133 -97.5 -200.5t-259.5 -67.5q-68 0 -138.5 19.5t-107.5 38.5zM446 0l830 1434h184l-829 -1434h-185zM1110 307l416 574l200 -21v-541h144v-133h-144v-186h-174v186h-430zM1288 319h264v367z" />
<glyph unicode="&#xbf;" horiz-adv-x="974" d="M133 -102q0 104 59.5 197t130 150.5t130 126t59.5 128.5l-4 127l184 12q18 -139 19 -201q0 -49 -37 -99t-90.5 -96t-107.5 -93.5t-91 -107.5t-37 -124q0 -164 215 -164l215 27l33 -154q-135 -47 -258 -47q-184 0 -302 74t-118 244zM451 983q0 66 38.5 104.5t94.5 38.5 q61 0 97 -37.5t36 -105.5q0 -66 -39 -104.5t-94 -38.5q-61 0 -97 37.5t-36 105.5z" />
<glyph unicode="&#xc0;" horiz-adv-x="1484" d="M10 0v123l168 39l467 1261l205 11l455 -1272l170 -39v-123h-594v123l190 39l-78 227h-532l-80 -227l192 -39v-123h-563zM502 1761l102 154l379 -297l-82 -113zM516 553h422l-207 616z" />
<glyph unicode="&#xc1;" horiz-adv-x="1484" d="M10 0v123l168 39l467 1261l205 11l455 -1272l170 -39v-123h-594v123l190 39l-78 227h-532l-80 -227l192 -39v-123h-563zM516 553h422l-207 616zM635 1618l379 297l102 -154l-399 -256z" />
<glyph unicode="&#xc2;" horiz-adv-x="1484" d="M10 0v123l168 39l467 1261l205 11l455 -1272l170 -39v-123h-594v123l190 39l-78 227h-532l-80 -227l192 -39v-123h-563zM379 1628l297 246l123 10l297 -256l-82 -92l-273 190l-280 -190zM516 553h422l-207 616z" />
<glyph unicode="&#xc3;" horiz-adv-x="1484" d="M10 0v123l168 39l467 1261l205 11l455 -1272l170 -39v-123h-594v123l190 39l-78 227h-532l-80 -227l192 -39v-123h-563zM424 1720q4 8 10 20.5t27.5 46.5t46 59.5t62.5 46t79 20.5q74 0 181.5 -47t166.5 -47q37 0 70 21.5t48 42.5l15 22l72 -72q-2 -8 -8 -20.5t-26.5 -44 t-43 -56t-59.5 -44t-78 -19.5q-74 0 -181.5 45t-166.5 45q-37 0 -73 -22.5t-53 -45.5l-17 -22zM516 553h422l-207 616z" />
<glyph unicode="&#xc4;" horiz-adv-x="1484" d="M10 0v123l168 39l467 1261l205 11l455 -1272l170 -39v-123h-594v123l190 39l-78 227h-532l-80 -227l192 -39v-123h-563zM481 1689.5q0 57.5 33 90t80 32.5q53 0 83 -32.5t30 -90t-33 -90t-80 -32.5q-53 0 -83 32.5t-30 90zM516 553h422l-207 616zM901 1689.5 q0 57.5 33 90t80 32.5q53 0 82.5 -32.5t29.5 -90t-32.5 -90t-79.5 -32.5q-53 0 -83 32.5t-30 90z" />
<glyph unicode="&#xc5;" horiz-adv-x="1484" d="M10 0v123l168 39l467 1261q-133 58 -133 205q0 104 71.5 170t164.5 66q94 0 164.5 -60.5t70.5 -165.5q0 -74 -36 -129t-95 -82l453 -1265l170 -39v-123h-594v123l190 39l-78 227h-532l-80 -227l192 -39v-123h-563zM516 553h422l-207 616zM635 1632q0 -127 113 -127 q49 0 80.5 35t31.5 94q0 127 -112 127q-49 0 -81 -35t-32 -94z" />
<glyph unicode="&#xc6;" horiz-adv-x="1964" d="M10 0v123l183 41l567 1106l-174 41v112l258 11h977v-349h-133l-52 185h-438v-441h469v-163h-469v-502h469l41 205h133v-369h-1042v123l184 41v256h-451l-129 -262l160 -35v-123h-553zM614 584h369v686h-31z" />
<glyph unicode="&#xc7;" horiz-adv-x="1320" d="M82 686q0 352 185.5 560t500.5 208q100 0 215 -25.5t180 -51.5l66 -25l-10 -346h-154l-55 233q-109 41 -262 41q-207 0 -319 -150.5t-112 -433.5q0 -266 120 -399t321 -133q192 0 391 150l18 14l82 -133q-6 -6 -19 -18.5t-55 -44.5t-88.5 -57.5t-116 -52t-141.5 -36.5 v-76q174 -31 175 -182q0 -78 -66 -128.5t-160 -50.5q-59 0 -118.5 16.5t-90.5 32.5l-30 15l53 86q94 -47 176 -47q39 0 65.5 22.5t26.5 59.5q0 47 -44 74.5t-120 27.5v146q-293 12 -453.5 192t-160.5 512z" />
<glyph unicode="&#xc8;" horiz-adv-x="1280" d="M123 0v123l174 41v1106l-174 41v112l389 11h625v-349h-133l-52 185h-440v-441h471v-163h-471v-502h471l41 205h133v-369h-1034zM358 1761l103 154l379 -297l-82 -113z" />
<glyph unicode="&#xc9;" horiz-adv-x="1280" d="M123 0v123l174 41v1106l-174 41v112l389 11h625v-349h-133l-52 185h-440v-441h471v-163h-471v-502h471l41 205h133v-369h-1034zM492 1618l378 297l103 -154l-400 -256z" />
<glyph unicode="&#xca;" horiz-adv-x="1280" d="M123 0v123l174 41v1106l-174 41v112l389 11h625v-349h-133l-52 185h-440v-441h471v-163h-471v-502h471l41 205h133v-369h-1034zM297 1628l297 246l123 10l297 -256l-82 -92l-273 190l-280 -190z" />
<glyph unicode="&#xcb;" horiz-adv-x="1280" d="M123 0v123l174 41v1106l-174 41v112l389 11h625v-349h-133l-52 185h-440v-441h471v-163h-471v-502h471l41 205h133v-369h-1034zM328 1689.5q0 57.5 32.5 90t79.5 32.5q53 0 83 -32.5t30 -90t-33 -90t-80 -32.5q-53 0 -82.5 32.5t-29.5 90zM748 1689.5q0 57.5 32.5 90 t79.5 32.5q53 0 83 -32.5t30 -90t-33 -90t-80 -32.5q-53 0 -82.5 32.5t-29.5 90z" />
<glyph unicode="&#xcc;" horiz-adv-x="737" d="M51 1761l103 154l378 -297l-81 -113zM92 0v123l174 41v1106l-174 41v112l563 11v-123l-174 -41v-1106l174 -41v-123h-563z" />
<glyph unicode="&#xcd;" horiz-adv-x="727" d="M82 0v123l174 41v1106l-174 41v112l563 11v-123l-174 -41v-1106l174 -41v-123h-563zM195 1618l378 297l103 -154l-400 -256z" />
<glyph unicode="&#xce;" horiz-adv-x="770" d="M41 1628l283 246l122 10l283 -256l-82 -92l-258 190l-266 -190zM109 0v123l174 41v1106l-174 41v112l563 11v-123l-174 -41v-1106l174 -41v-123h-563z" />
<glyph unicode="&#xcf;" horiz-adv-x="727" d="M41 1689.5q0 57.5 32.5 90t80.5 32.5q53 0 82.5 -32.5t29.5 -90t-32.5 -90t-79.5 -32.5q-53 0 -83 32.5t-30 90zM82 0v123l174 41v1106l-174 41v112l563 11v-123l-174 -41v-1106l174 -41v-123h-563zM461 1689.5q0 57.5 32.5 90t79.5 32.5q53 0 83 -32.5t30 -90t-32.5 -90 t-80.5 -32.5q-53 0 -82.5 32.5t-29.5 90z" />
<glyph unicode="&#xd0;" horiz-adv-x="1501" d="M123 0v123l174 41v512h-174v162h174v432l-174 41v112l389 11h262q303 0 474 -181.5t171 -515.5q0 -338 -184 -537.5t-492 -199.5h-620zM510 164h244q201 0 315.5 140t114.5 423q0 276 -110.5 409.5t-309.5 133.5h-254v-432h319v-162h-319v-512z" />
<glyph unicode="&#xd1;" horiz-adv-x="1638" d="M92 0v123l174 41v1106l-174 41v112l430 11l676 -1145v981l-174 41v112l532 11v-123l-174 -41v-1270h-256l-675 1128v-964l194 -41v-123h-553zM410 1630q4 8 10 20.5t27.5 46.5t46 59.5t62.5 46t79 20.5q74 0 186.5 -47t171.5 -47q37 0 70 21.5t48 42.5l15 22l72 -62 q-2 -8 -8 -20.5t-26.5 -44t-43 -56t-59.5 -44t-78 -19.5q-74 0 -186.5 45t-171.5 45q-37 0 -73 -22.5t-53 -45.5l-18 -22z" />
<glyph unicode="&#xd2;" horiz-adv-x="1546" d="M123 707q0 340 180 543.5t485 203.5q297 0 466 -192.5t169 -524.5q0 -338 -188 -547.5t-487 -209.5q-301 0 -463 187t-162 540zM358 717q0 -563 400 -563q205 0 317.5 144t112.5 429q0 553 -410 553q-420 0 -420 -563zM481 1761l103 154l379 -297l-82 -113z" />
<glyph unicode="&#xd3;" horiz-adv-x="1546" d="M123 707q0 340 180 543.5t485 203.5q297 0 466 -192.5t169 -524.5q0 -338 -188 -547.5t-487 -209.5q-301 0 -463 187t-162 540zM358 717q0 -563 400 -563q205 0 317.5 144t112.5 429q0 553 -410 553q-420 0 -420 -563zM563 1618l379 297l102 -154l-399 -256z" />
<glyph unicode="&#xd4;" horiz-adv-x="1546" d="M123 707q0 340 180 543.5t485 203.5q297 0 466 -192.5t169 -524.5q0 -338 -188 -547.5t-487 -209.5q-301 0 -463 187t-162 540zM358 717q0 -563 400 -563q205 0 317.5 144t112.5 429q0 553 -410 553q-420 0 -420 -563zM399 1597l308 277l122 10l308 -287l-82 -92 l-283 221l-291 -221z" />
<glyph unicode="&#xd5;" horiz-adv-x="1546" d="M123 707q0 340 180 543.5t485 203.5q297 0 466 -192.5t169 -524.5q0 -338 -188 -547.5t-487 -209.5q-301 0 -463 187t-162 540zM358 717q0 -563 400 -563q205 0 317.5 144t112.5 429q0 553 -410 553q-420 0 -420 -563zM383 1720q4 8 10 20.5t27.5 46.5t46.5 59.5t62.5 46 t78.5 20.5q74 0 181.5 -47t166.5 -47q37 0 70 21.5t48 42.5l16 22l71 -72q-2 -8 -8 -20.5t-26.5 -44t-43 -56t-59.5 -44t-78 -19.5q-74 0 -181.5 45t-166.5 45q-37 0 -73 -22.5t-53 -45.5l-17 -22z" />
<glyph unicode="&#xd6;" horiz-adv-x="1546" d="M123 707q0 340 180 543.5t485 203.5q297 0 466 -192.5t169 -524.5q0 -338 -188 -547.5t-487 -209.5q-301 0 -463 187t-162 540zM358 717q0 -563 400 -563q205 0 317.5 144t112.5 429q0 553 -410 553q-420 0 -420 -563zM451 1689.5q0 57.5 32.5 90t79.5 32.5 q53 0 83 -32.5t30 -90t-33 -90t-80 -32.5q-53 0 -82.5 32.5t-29.5 90zM870 1689.5q0 57.5 33 90t80 32.5q53 0 83 -32.5t30 -90t-33 -90t-80 -32.5q-53 0 -83 32.5t-30 90z" />
<glyph unicode="&#xd7;" horiz-adv-x="1228" d="M123 166l377 377l-377 377l115 114l376 -377l377 377l115 -114l-377 -377l377 -377l-115 -115l-377 377l-376 -377z" />
<glyph unicode="&#xd8;" horiz-adv-x="1566" d="M133 707q0 340 180.5 543.5t485.5 203.5q168 0 299 -65l131 219l133 -72l-139 -231q211 -195 211 -568q0 -338 -188.5 -547.5t-487.5 -209.5q-172 0 -297 61l-154 -256l-133 72l162 268q-203 184 -203 582zM369 717q0 -254 84 -398l546 908q-90 53 -211 53 q-420 0 -419 -563zM561 207q84 -53 207 -53q205 0 317.5 144t112.5 429q0 250 -88 391z" />
<glyph unicode="&#xd9;" horiz-adv-x="1617" d="M82 1311v112l584 11v-123l-195 -41v-717q0 -225 78 -312t260 -87q190 0 264 95t74 335v686l-195 41v112l584 11v-123l-174 -41v-686q0 -301 -127 -452.5t-436 -151.5q-293 0 -418 140t-125 433v717zM481 1761l103 154l379 -297l-82 -113z" />
<glyph unicode="&#xda;" horiz-adv-x="1617" d="M82 1311v112l584 11v-123l-195 -41v-717q0 -225 78 -312t260 -87q190 0 264 95t74 335v686l-195 41v112l584 11v-123l-174 -41v-686q0 -301 -127 -452.5t-436 -151.5q-293 0 -418 140t-125 433v717zM653 1618l379 297l103 -154l-400 -256z" />
<glyph unicode="&#xdb;" horiz-adv-x="1617" d="M82 1311v112l584 11v-123l-195 -41v-717q0 -225 78 -312t260 -87q190 0 264 95t74 335v686l-195 41v112l584 11v-123l-174 -41v-686q0 -301 -127 -452.5t-436 -151.5q-293 0 -418 140t-125 433v717zM451 1628l297 246l122 10l297 -256l-82 -92l-272 190l-281 -190z" />
<glyph unicode="&#xdc;" horiz-adv-x="1617" d="M82 1311v112l584 11v-123l-195 -41v-717q0 -225 78 -312t260 -87q190 0 264 95t74 335v686l-195 41v112l584 11v-123l-174 -41v-686q0 -301 -127 -452.5t-436 -151.5q-293 0 -418 140t-125 433v717zM471 1689.5q0 57.5 33 90t80 32.5q53 0 82.5 -32.5t29.5 -90t-32.5 -90 t-79.5 -32.5q-53 0 -83 32.5t-30 90zM891 1689.5q0 57.5 32.5 90t80.5 32.5q53 0 82.5 -32.5t29.5 -90t-32.5 -90t-79.5 -32.5q-53 0 -83 32.5t-30 90z" />
<glyph unicode="&#xdd;" horiz-adv-x="1320" d="M20 1311v112l512 11v-123l-139 -41l273 -574l301 574l-158 41v112l491 11v-123l-126 -37l-406 -739v-371l174 -41v-123h-563v123l174 41v366l-395 742zM553 1618l379 297l102 -154l-399 -256z" />
<glyph unicode="&#xde;" horiz-adv-x="1239" d="M82 0v123l174 41v1106l-174 41v112l563 11v-123l-174 -41v-113h215q221 0 346 -100.5t125 -278.5q0 -223 -140 -342t-403 -119h-143v-153l174 -41v-123h-563zM471 481h143q162 0 250 68.5t88 198.5q0 111 -73.5 178t-202.5 67h-205v-512z" />
<glyph unicode="&#xdf;" horiz-adv-x="1558" d="M143 922v133l226 20v113q0 190 119.5 299.5t320.5 109.5q219 0 350 -77.5t131 -239.5q0 -80 -42 -146.5t-92 -104.5t-92 -88t-42 -101q0 -61 48 -104.5t116.5 -73t138.5 -64.5t119 -100.5t51 -159.5q2 -156 -126 -257t-298 -101q-78 0 -152.5 11t-111.5 22l-37 12l-2 294 h133l31 -165q4 -2 14 -6.5t47 -10.5t80 -4q92 4 150.5 45t56.5 119q-2 61 -51 103t-119 70t-137.5 62.5t-115.5 104.5t-48 172q0 68 28.5 121t68.5 89t81 67.5t69.5 75.5t28.5 98q0 98 -75.5 141t-190.5 43q-109 0 -177.5 -58.5t-68.5 -156.5v-1229h-378v113l174 51v758 h-226z" />
<glyph unicode="&#xe0;" d="M92 287q0 317 471 317h164v164q0 184 -195 184l-206 -30l-29 -154h-133l-10 256q225 82 399 82q186 0 282.5 -74t96.5 -244v-624l164 -41v-113l-318 -10l-43 143q-164 -164 -336 -163q-145 0 -226 80.5t-81 226.5zM276 1485l103 153l399 -317l-71 -102zM301 297 q0 -70 40 -112t110 -42q136 0 263 148l13 16v164h-143q-154 0 -218.5 -41t-64.5 -133z" />
<glyph unicode="&#xe1;" d="M92 287q0 317 471 317h164v164q0 184 -195 184l-206 -30l-29 -154h-133l-10 256q225 82 399 82q186 0 282.5 -74t96.5 -244v-624l164 -41v-113l-318 -10l-43 143q-164 -164 -336 -163q-145 0 -226 80.5t-81 226.5zM301 297q0 -70 40 -112t110 -42q136 0 263 148l13 16 v164h-143q-154 0 -218.5 -41t-64.5 -133zM328 1321l399 317l102 -153l-430 -266z" />
<glyph unicode="&#xe2;" d="M92 287q0 317 471 317h164v164q0 184 -195 184l-206 -30l-29 -154h-133l-10 256q225 82 399 82q186 0 282.5 -74t96.5 -244v-624l164 -41v-113l-318 -10l-43 143q-164 -164 -336 -163q-145 0 -226 80.5t-81 226.5zM164 1321l307 276l123 11l307 -287l-82 -92l-282 221 l-291 -221zM301 297q0 -70 40 -112t110 -42q136 0 263 148l13 16v164h-143q-154 0 -218.5 -41t-64.5 -133z" />
<glyph unicode="&#xe3;" d="M92 287q0 317 471 317h164v164q0 184 -195 184l-206 -30l-29 -154h-133l-10 256q225 82 399 82q186 0 282.5 -74t96.5 -244v-624l164 -41v-113l-318 -10l-43 143q-164 -164 -336 -163q-145 0 -226 80.5t-81 226.5zM147 1372q4 8 10.5 20.5t28 46.5t46 59.5t62.5 46 t79 20.5q74 0 181.5 -47.5t166.5 -47.5q37 0 69.5 21.5t48.5 43.5l15 21l72 -71q-2 -8 -8.5 -20.5t-27 -44t-43 -56.5t-59 -44.5t-77.5 -19.5q-74 0 -181.5 45.5t-167.5 45.5q-37 0 -72.5 -22.5t-52.5 -45.5l-18 -23zM301 297q0 -70 40 -112t110 -42q136 0 263 148l13 16 v164h-143q-154 0 -218.5 -41t-64.5 -133z" />
<glyph unicode="&#xe4;" d="M92 287q0 317 471 317h164v164q0 184 -195 184l-206 -30l-29 -154h-133l-10 256q225 82 399 82q186 0 282.5 -74t96.5 -244v-624l164 -41v-113l-318 -10l-43 143q-164 -164 -336 -163q-145 0 -226 80.5t-81 226.5zM215 1433.5q0 57.5 33 90t80 32.5q53 0 82.5 -32.5 t29.5 -90t-32.5 -90t-79.5 -32.5q-53 0 -83 32.5t-30 90zM301 297q0 -70 40 -112t110 -42q136 0 263 148l13 16v164h-143q-154 0 -218.5 -41t-64.5 -133zM635 1433.5q0 57.5 32.5 90t80.5 32.5q53 0 82.5 -32.5t29.5 -90t-32.5 -90t-79.5 -32.5q-53 0 -83 32.5t-30 90z" />
<glyph unicode="&#xe5;" d="M92 287q0 317 471 317h164v164q0 184 -195 184l-206 -30l-29 -154h-133l-10 256q225 82 399 82q186 0 282.5 -74t96.5 -244v-624l164 -41v-113l-318 -10l-43 143q-164 -164 -336 -163q-145 0 -226 80.5t-81 226.5zM301 297q0 -70 40 -112t110 -42q136 0 263 148l13 16 v164h-143q-154 0 -218.5 -41t-64.5 -133zM342 1443.5q0 104.5 71.5 170t164.5 65.5q94 0 164.5 -60t70.5 -164.5t-71.5 -170t-163.5 -65.5q-94 0 -165 60t-71 164.5zM465 1448q0 -127 113 -127q49 0 80.5 35t31.5 94q0 127 -112 127q-49 0 -81 -35t-32 -94z" />
<glyph unicode="&#xe6;" horiz-adv-x="1710" d="M92 287q0 317 471 317h164v164q0 184 -195 184l-206 -30l-29 -154h-133l-10 256q225 82 399 82q246 0 319 -143q131 143 336 143q430 0 430 -481l-10 -109l-706 -4q0 -168 81.5 -268.5t215.5 -100.5q189 0 336 107l8 6l71 -106q-20 -18 -59 -47t-153.5 -76t-223.5 -47 q-289 0 -403 217q-31 -39 -74 -81t-135 -89t-187 -47q-145 0 -226 80.5t-81 226.5zM297 297q0 -70 42 -112t112 -42q135 0 262 156l14 18v154h-143q-154 0 -220.5 -41t-66.5 -133zM930 666h491q0 125 -53 202.5t-170 77.5q-119 0 -188.5 -79.5t-79.5 -200.5z" />
<glyph unicode="&#xe7;" horiz-adv-x="1044" d="M82 543q0 250 145.5 406.5t386.5 156.5q82 0 169 -20.5t133 -41.5l47 -20l-11 -276h-133l-31 174q-82 20 -184 20q-147 0 -227 -95t-80 -284q0 -205 84 -312.5t233 -107.5q86 0 166 31t116 62l36 30l72 -123q-16 -14 -48 -37.5t-123.5 -67.5t-177.5 -54v-74 q82 -16 130.5 -63.5t48.5 -118.5q0 -78 -62.5 -127.5t-157.5 -49.5q-59 0 -117.5 14.5t-86.5 28.5l-29 15l49 84q92 -43 174 -43q41 0 68.5 22.5t27.5 61.5q0 47 -46 75.5t-122 28.5v146q-221 16 -335.5 162.5t-114.5 396.5z" />
<glyph unicode="&#xe8;" horiz-adv-x="1085" d="M82 532q0 248 140 411t362 163q430 0 430 -481l-10 -109l-707 -4q0 -168 82 -268.5t215 -100.5q189 0 336 107l8 6l72 -106q-20 -18 -59.5 -47t-154 -76t-223.5 -47q-242 0 -366.5 146t-124.5 406zM276 1485l103 153l399 -317l-71 -102zM305 666h492q0 125 -53.5 202.5 t-170.5 77.5q-119 0 -188.5 -79.5t-79.5 -200.5z" />
<glyph unicode="&#xe9;" horiz-adv-x="1085" d="M82 532q0 248 140 411t362 163q430 0 430 -481l-10 -109l-707 -4q0 -168 82 -268.5t215 -100.5q189 0 336 107l8 6l72 -106q-20 -18 -59.5 -47t-154 -76t-223.5 -47q-242 0 -366.5 146t-124.5 406zM305 666h492q0 125 -53.5 202.5t-170.5 77.5q-119 0 -188.5 -79.5 t-79.5 -200.5zM358 1321l400 317l102 -153l-430 -266z" />
<glyph unicode="&#xea;" horiz-adv-x="1085" d="M82 532q0 248 140 411t362 163q430 0 430 -481l-10 -109l-707 -4q0 -168 82 -268.5t215 -100.5q189 0 336 107l8 6l72 -106q-20 -18 -59.5 -47t-154 -76t-223.5 -47q-242 0 -366.5 146t-124.5 406zM186 1321l308 276l122 11l308 -287l-82 -92l-283 221l-291 -221z M305 666h492q0 125 -53.5 202.5t-170.5 77.5q-119 0 -188.5 -79.5t-79.5 -200.5z" />
<glyph unicode="&#xeb;" horiz-adv-x="1085" d="M82 532q0 248 140 411t362 163q430 0 430 -481l-10 -109l-707 -4q0 -168 82 -268.5t215 -100.5q189 0 336 107l8 6l72 -106q-20 -18 -59.5 -47t-154 -76t-223.5 -47q-242 0 -366.5 146t-124.5 406zM236 1433.5q0 57.5 32.5 90t79.5 32.5q53 0 83 -32.5t30 -90t-33 -90 t-80 -32.5q-53 0 -82.5 32.5t-29.5 90zM305 666h492q0 125 -53.5 202.5t-170.5 77.5q-119 0 -188.5 -79.5t-79.5 -200.5zM655 1433.5q0 57.5 33 90t80 32.5q53 0 83 -32.5t30 -90t-33 -90t-80 -32.5q-53 0 -83 32.5t-30 90z" />
<glyph unicode="&#xec;" horiz-adv-x="686" d="M31 1485l102 153l399 -317l-71 -102zM82 0v113l174 51v758l-174 41v112l379 10v-921l153 -51v-113h-532z" />
<glyph unicode="&#xed;" horiz-adv-x="686" d="M82 0v113l174 51v758l-174 41v112l379 10v-921l153 -51v-113h-532zM133 1341l399 318l103 -154l-430 -266z" />
<glyph unicode="&#xee;" horiz-adv-x="706" d="M0 1321l287 276l123 11l286 -287l-82 -92l-262 221l-270 -221zM92 0v113l174 51v758l-174 41v112l379 10v-921l154 -51v-113h-533z" />
<glyph unicode="&#xef;" horiz-adv-x="686" d="M31 1433.5q0 57.5 32.5 90t79.5 32.5q53 0 83 -32.5t30 -90t-33 -90t-80 -32.5q-53 0 -82.5 32.5t-29.5 90zM82 0v113l174 51v758l-174 41v112l379 10v-921l153 -51v-113h-532zM430 1433.5q0 57.5 33 90t80 32.5q53 0 82.5 -32.5t29.5 -90t-32.5 -90t-79.5 -32.5 q-53 0 -83 32.5t-30 90z" />
<glyph unicode="&#xf0;" horiz-adv-x="1218" d="M92 502q0 260 135 406.5t367 146.5q141 0 252 -86q-74 203 -230 331l-268 -143l-82 113l221 119q-88 49 -200 86l61 129q166 -39 303 -125l230 125l84 -115l-193 -105q324 -293 324 -841q0 -254 -140.5 -408.5t-372 -154.5t-361.5 135t-130 387zM307 512 q0 -174 72 -271.5t215 -97.5q150 0 218.5 95.5t68.5 283.5q-1 369 -277 369q-297 0 -297 -379z" />
<glyph unicode="&#xf1;" horiz-adv-x="1361" d="M82 0v113l174 51v758l-174 41v112l338 10l18 -145q37 31 84 63.5t133 67.5t164 35q164 0 246 -97.5t82 -271.5v-573l153 -51v-113h-491v113l133 51v553q0 111 -43 163t-141 52q-153 0 -283 -147l-14 -17v-604l133 -51v-113h-512zM293 1374q4 8 9 20.5t26.5 45.5t45 58.5 t63.5 46t81 20.5q74 0 178.5 -46t163.5 -46q33 0 68 21.5t53 42.5l18 22l72 -72q-2 -8 -8 -20.5t-26.5 -44t-44 -56.5t-62.5 -45.5t-80 -20.5q-74 0 -178.5 46.5t-163.5 46.5q-39 0 -75 -22.5t-52 -45.5l-16 -22z" />
<glyph unicode="&#xf2;" horiz-adv-x="1167" d="M82 532q0 260 145.5 417t376.5 157q227 0 354 -146.5t127 -396.5q0 -262 -141 -422.5t-371 -160.5q-233 0 -362 140t-129 412zM297 542.5q0 -399.5 287 -399.5q150 0 218 102.5t68 307.5q0 389 -276 389q-297 0 -297 -399.5zM297 1485l102 153l400 -317l-72 -102z" />
<glyph unicode="&#xf3;" horiz-adv-x="1167" d="M82 532q0 260 145.5 417t376.5 157q227 0 354 -146.5t127 -396.5q0 -262 -141 -422.5t-371 -160.5q-233 0 -362 140t-129 412zM297 542.5q0 -399.5 287 -399.5q150 0 218 102.5t68 307.5q0 389 -276 389q-297 0 -297 -399.5zM369 1321l399 317l102 -153l-430 -266z" />
<glyph unicode="&#xf4;" horiz-adv-x="1167" d="M82 532q0 260 145.5 417t376.5 157q227 0 354 -146.5t127 -396.5q0 -262 -141 -422.5t-371 -160.5q-233 0 -362 140t-129 412zM225 1321l307 276l123 11l308 -287l-82 -92l-283 221l-291 -221zM297 542.5q0 -399.5 287 -399.5q150 0 218 102.5t68 307.5q0 389 -276 389 q-297 0 -297 -399.5z" />
<glyph unicode="&#xf5;" horiz-adv-x="1167" d="M82 532q0 260 145.5 417t376.5 157q227 0 354 -146.5t127 -396.5q0 -262 -141 -422.5t-371 -160.5q-233 0 -362 140t-129 412zM195 1372q4 8 10 20.5t27.5 46.5t46 59.5t62.5 46t79 20.5q74 0 181.5 -47.5t166.5 -47.5q37 0 69.5 21.5t48.5 43.5l15 21l72 -71 q-2 -8 -8.5 -20.5t-26.5 -44t-43 -56.5t-59.5 -44.5t-77.5 -19.5q-74 0 -181.5 45.5t-166.5 45.5q-37 0 -73 -22.5t-53 -45.5l-18 -23zM297 542.5q0 -399.5 287 -399.5q150 0 218 102.5t68 307.5q0 389 -276 389q-297 0 -297 -399.5z" />
<glyph unicode="&#xf6;" horiz-adv-x="1167" d="M82 532q0 260 145.5 417t376.5 157q227 0 354 -146.5t127 -396.5q0 -262 -141 -422.5t-371 -160.5q-233 0 -362 140t-129 412zM256 1433.5q0 57.5 33 90t80 32.5q53 0 82.5 -32.5t29.5 -90t-32.5 -90t-79.5 -32.5q-53 0 -83 32.5t-30 90zM297 542.5q0 -399.5 287 -399.5 q150 0 218 102.5t68 307.5q0 389 -276 389q-297 0 -297 -399.5zM676 1433.5q0 57.5 32.5 90t79.5 32.5q53 0 83 -32.5t30 -90t-32.5 -90t-80.5 -32.5q-53 0 -82.5 32.5t-29.5 90z" />
<glyph unicode="&#xf7;" horiz-adv-x="1269" d="M102 461v164h1065v-164h-1065zM502 123q0 66 38 104.5t95 38.5q61 0 97 -38t36 -105q0 -66 -38 -104.5t-95 -38.5q-61 0 -97 37.5t-36 105.5zM502 963q0 66 38 104.5t95 38.5q61 0 97 -38t36 -105q0 -66 -38 -105t-95 -39q-61 0 -97 38t-36 106z" />
<glyph unicode="&#xf8;" horiz-adv-x="1187" d="M92 532q0 260 145.5 417t376.5 157q115 0 209 -41l129 215l123 -72l-133 -223q154 -143 154 -422q0 -262 -141.5 -422.5t-370.5 -160.5q-119 0 -219 38l-140 -233l-123 72l142 237q-152 141 -152 438zM307 543q0 -168 47 -262l379 632q-57 29 -129 29q-297 0 -297 -399z M457 174q59 -31 137 -31q150 0 218.5 102.5t68.5 307.5q0 156 -47 252z" />
<glyph unicode="&#xf9;" horiz-adv-x="1331" d="M41 963v112l379 10v-718q0 -109 43 -161t141 -52q78 0 151.5 39.5t109.5 80.5l36 41v607l-174 41v112l379 10v-921l174 -41v-113l-338 -10l-20 143q-35 -31 -83 -62.5t-134.5 -66t-161.5 -34.5q-164 0 -246 96t-82 270v576zM358 1485l103 153l399 -317l-72 -102z" />
<glyph unicode="&#xfa;" horiz-adv-x="1331" d="M41 963v112l379 10v-718q0 -109 43 -161t141 -52q78 0 151.5 39.5t109.5 80.5l36 41v607l-174 41v112l379 10v-921l174 -41v-113l-338 -10l-20 143q-35 -31 -83 -62.5t-134.5 -66t-161.5 -34.5q-164 0 -246 96t-82 270v576zM440 1321l400 317l102 -153l-430 -266z" />
<glyph unicode="&#xfb;" horiz-adv-x="1331" d="M41 963v112l379 10v-718q0 -109 43 -161t141 -52q78 0 151.5 39.5t109.5 80.5l36 41v607l-174 41v112l379 10v-921l174 -41v-113l-338 -10l-20 143q-35 -31 -83 -62.5t-134.5 -66t-161.5 -34.5q-164 0 -246 96t-82 270v576zM297 1321l307 276l123 11l307 -287l-82 -92 l-282 221l-291 -221z" />
<glyph unicode="&#xfc;" horiz-adv-x="1331" d="M41 963v112l379 10v-718q0 -109 43 -161t141 -52q78 0 151.5 39.5t109.5 80.5l36 41v607l-174 41v112l379 10v-921l174 -41v-113l-338 -10l-20 143q-35 -31 -83 -62.5t-134.5 -66t-161.5 -34.5q-164 0 -246 96t-82 270v576zM317 1433.5q0 57.5 33 90t80 32.5 q53 0 83 -32.5t30 -90t-33 -90t-80 -32.5q-53 0 -83 32.5t-30 90zM737 1433.5q0 57.5 33 90t80 32.5q53 0 83 -32.5t30 -90t-33 -90t-80 -32.5q-53 0 -83 32.5t-30 90z" />
<glyph unicode="&#xfd;" horiz-adv-x="1177" d="M20 963v112l482 10v-122l-144 -21l246 -717l225 707l-143 31v112l485 10v-122l-133 -21l-290 -811q-102 -268 -152 -356q-151 -266 -401 -267l-132 11l19 143h102q100 0 175 84t151 250l-367 936zM492 1321l399 317l102 -153l-430 -266z" />
<glyph unicode="&#xfe;" horiz-adv-x="1259" d="M51 1454v113l379 10v-594q14 14 41 34.5t104.5 54.5t151.5 34q217 0 328.5 -143.5t111.5 -389.5q0 -272 -139 -432.5t-414 -160.5q-45 0 -91 7t-69 14l-24 7v-325l215 -41v-113h-584v113l164 41v1730zM430 184q61 -41 215 -41q307 0 307 410q0 178 -66.5 283.5 t-199.5 105.5q-82 0 -145.5 -36t-86.5 -71l-24 -36v-615z" />
<glyph unicode="&#xff;" horiz-adv-x="1177" d="M20 963v112l482 10v-122l-144 -21l246 -717l225 707l-143 31v112l485 10v-122l-133 -21l-290 -811q-102 -268 -152 -356q-151 -266 -401 -267l-132 11l19 143h102q100 0 175 84t151 250l-367 936zM276 1433.5q0 57.5 33 90t80 32.5q53 0 83 -32.5t30 -90t-33 -90 t-80 -32.5q-53 0 -83 32.5t-30 90zM696 1433.5q0 57.5 33 90t80 32.5q53 0 83 -32.5t30 -90t-33 -90t-80 -32.5q-53 0 -83 32.5t-30 90z" />
<glyph unicode="&#x105;" horiz-adv-x="1167" d="M92 287q0 317 471 317h164v164q0 184 -195 184l-206 -30l-29 -154h-133l-10 256q225 82 399 82q186 0 282.5 -74t96.5 -244v-624l164 -41v-113q-10 -4 -26.5 -12t-58.5 -34.5t-75 -54.5t-59.5 -68t-26.5 -77q0 -45 25.5 -68.5t66.5 -23.5l92 15l21 -97q-82 -41 -164 -41 q-88 0 -146.5 52.5t-58.5 142.5q0 70 46 130t87 87t78 43l-119 -4l-43 143q-164 -164 -336 -163q-145 0 -226 80.5t-81 226.5zM301 297q0 -70 40 -112t110 -42q136 0 263 148l13 16v164h-143q-154 0 -218.5 -41t-64.5 -133z" />
<glyph unicode="&#x119;" horiz-adv-x="1085" d="M82 532q0 248 140 411t362 163q430 0 430 -481l-10 -109l-707 -4q0 -168 82 -268.5t215 -100.5q189 0 336 107l8 6l72 -106q-41 -27 -87 -62t-110.5 -92t-106.5 -118.5t-42 -113.5q0 -45 25.5 -68.5t66.5 -23.5l92 15l20 -97q-82 -41 -163 -41q-88 0 -146.5 52.5 t-58.5 142.5q0 117 139 242q-33 -6 -66 -6q-242 0 -366.5 146t-124.5 406zM305 666h492q0 125 -53.5 202.5t-170.5 77.5q-119 0 -188.5 -79.5t-79.5 -200.5z" />
<glyph unicode="&#x131;" horiz-adv-x="686" d="M82 0v113l174 51v758l-174 41v112l379 10v-921l153 -51v-113h-532z" />
<glyph unicode="&#x141;" horiz-adv-x="1105" d="M51 631l215 102v537l-174 41v112l563 11v-123l-174 -41v-447l297 144l43 -154l-340 -164v-485h420l41 235h143v-399h-993v123l174 41v395l-172 -82z" />
<glyph unicode="&#x142;" horiz-adv-x="739" d="M41 688l235 113v612l-174 41v113l383 10v-690l203 96l41 -154l-244 -116v-549l205 -51v-113h-588v113l174 51v465l-192 -92z" />
<glyph unicode="&#x152;" horiz-adv-x="1925" d="M123 707q0 338 179 537.5t486 199.5q53 0 161 -5t147 -5h676v-349h-134l-51 185h-440v-441h471v-163h-471v-502h471l41 205h133v-369h-717q-29 0 -144.5 -5t-182.5 -5q-301 0 -463 183t-162 534zM358 717q0 -563 400 -563l174 10v1106q-92 10 -154 10q-420 0 -420 -563z " />
<glyph unicode="&#x153;" horiz-adv-x="1873" d="M82 532q0 260 145.5 417t376.5 157q254 0 387 -213q129 213 381 213q430 0 430 -481l-10 -109l-707 -4q0 -168 82 -268.5t215 -100.5q189 0 337 107q8 6 7 6l72 -106q-20 -18 -59 -47t-154 -76t-223 -47q-268 0 -385 210q-139 -211 -404 -210q-233 0 -362 140t-129 412z M297 542.5q0 -399.5 287 -399.5q297 0 297 410q0 180 -70 284.5t-217 104.5q-297 0 -297 -399.5zM1094 666h491q0 125 -53 202.5t-170 77.5q-119 0 -188.5 -79.5t-79.5 -200.5z" />
<glyph unicode="&#x160;" horiz-adv-x="1228" d="M143 61v359h164l41 -215q10 -6 29.5 -15.5t78 -23.5t117.5 -12q125 2 220.5 59t93.5 160q-2 74 -56.5 126t-136.5 78.5t-176 64.5t-176 80t-137 125t-58 200q-2 203 136.5 303t349.5 104q86 2 194.5 -18.5t172.5 -41.5l65 -22l-10 -348h-133l-70 219q-12 4 -32.5 10.5 t-78 16.5t-106.5 10q-131 -2 -203 -59.5t-70 -139.5q2 -63 43 -109t105.5 -76t142.5 -56.5t156 -59t142.5 -74.5t105.5 -113t43 -165q4 -217 -148.5 -331.5t-386.5 -119.5q-211 -1 -422 84zM231 1812l86 93l287 -226l287 226l72 -93l-297 -286h-123z" />
<glyph unicode="&#x161;" horiz-adv-x="972" d="M98 328h144l22 -176q8 -2 24.5 -6.5t64.5 -9.5t91 -3q231 8 226 162q-2 61 -61.5 100t-142.5 63.5t-166 56.5t-141.5 98.5t-60.5 168.5q-2 156 101.5 238t273.5 86q161 2 350 -62l-6 -276h-133l-33 160q-10 4 -26.5 8t-62.5 11t-87 5q-80 -4 -127 -34.5t-45 -102.5 q2 -61 61.5 -101t142.5 -65.5t166 -57.5t141 -96.5t60 -160.5q2 -168 -119.5 -258t-312.5 -96q-78 -4 -162.5 7t-132.5 24l-47 14zM98 1516l86 92l287 -226l287 226l71 -92l-297 -287h-122z" />
<glyph unicode="&#x178;" horiz-adv-x="1320" d="M20 1311v112l512 11v-123l-139 -41l273 -574l301 574l-158 41v112l491 11v-123l-126 -37l-406 -739v-371l174 -41v-123h-563v123l174 41v366l-395 742zM328 1689.5q0 57.5 32.5 90t79.5 32.5q53 0 83 -32.5t30 -90t-33 -90t-80 -32.5q-53 0 -82.5 32.5t-29.5 90z M748 1689.5q0 57.5 32.5 90t79.5 32.5q53 0 83 -32.5t30 -90t-33 -90t-80 -32.5q-53 0 -82.5 32.5t-29.5 90z" />
<glyph unicode="&#x17d;" horiz-adv-x="1259" d="M82 0v143l819 1127h-573l-52 -205h-133v369h1035v-144l-820 -1126h635l41 205h133v-369h-1085zM252 1812l86 93l287 -226l286 226l72 -93l-297 -286h-123z" />
<glyph unicode="&#x17e;" horiz-adv-x="972" d="M72 0v154l598 778h-385l-29 -154h-143v307h788v-153l-600 -778h418l29 163h143v-317h-819zM119 1516l86 92l287 -226l286 226l72 -92l-297 -287h-123z" />
<glyph unicode="&#x192;" horiz-adv-x="901" d="M-123 -397l21 151h112q94 0 135 48t50 147l73 819h-176l4 133l187 21l24 276q16 188 117.5 293.5t282.5 105.5l153 -12l-10 -151h-143q-94 0 -135.5 -48.5t-49.5 -146.5l-24 -317h290l-4 -154h-301l-69 -778q-16 -188 -120 -294t-284 -106z" />
<glyph unicode="&#x2c6;" horiz-adv-x="1064" d="M174 1423l297 246l123 10l297 -256l-82 -92l-272 191l-281 -191z" />
<glyph unicode="&#x2c7;" horiz-adv-x="1058" d="M164 1587l86 92l287 -225l286 225l72 -92l-297 -287h-123z" />
<glyph unicode="&#x2d8;" horiz-adv-x="901" d="M164 1567l123 10q0 -6 3 -16.5t14 -37t26.5 -47t47.5 -37t73 -16.5q68 0 108.5 36t47.5 72l7 36l123 10q0 -135 -86 -221t-211 -86q-111 0 -193.5 85t-82.5 212z" />
<glyph unicode="&#x2d9;" horiz-adv-x="593" d="M184 1433.5q0 57.5 33 90t80 32.5q53 0 83 -32.5t30 -90t-33 -90t-80 -32.5q-53 0 -83 32.5t-30 90z" />
<glyph unicode="&#x2da;" horiz-adv-x="798" d="M164 1443.5q0 104.5 71.5 170t163.5 65.5q94 0 165 -60t71 -164.5t-71.5 -170t-164.5 -65.5q-94 0 -164.5 60t-70.5 164.5zM287 1448q0 -127 112 -127q49 0 81 35t32 94q0 127 -113 127q-49 0 -80.5 -35t-31.5 -94z" />
<glyph unicode="&#x2db;" horiz-adv-x="634" d="M143 -256q0 49 23.5 94t56.5 75t66 53.5t56 33.5l24 10h184q-10 -4 -26.5 -12t-58.5 -34.5t-75 -54.5t-59.5 -68t-26.5 -77q0 -45 25.5 -68.5t66.5 -23.5l93 15l20 -97q-82 -41 -164 -41q-88 0 -146.5 52.5t-58.5 142.5z" />
<glyph unicode="&#x2dc;" d="M195 1372q4 8 10 20.5t27.5 46.5t46 59.5t62.5 46t79 20.5q74 0 181.5 -47.5t166.5 -47.5q37 0 69.5 21.5t48.5 43.5l15 21l72 -71q-2 -8 -8.5 -20.5t-26.5 -44t-43 -56.5t-59.5 -44.5t-77.5 -19.5q-74 0 -181.5 45.5t-166.5 45.5q-37 0 -73 -22.5t-53 -45.5l-18 -23z " />
<glyph unicode="&#x2dd;" horiz-adv-x="1187" d="M174 1403l338 338l123 -133l-369 -308zM584 1403l338 338l122 -133l-368 -308z" />
<glyph unicode="&#x394;" horiz-adv-x="1363" d="M41 0v145l541 1330h200l541 -1332v-143h-1282zM244 164h860l-430 1079z" />
<glyph unicode="&#x2206;" horiz-adv-x="1363" d="M41 0v145l541 1330h200l541 -1332v-143h-1282zM244 164h860l-430 1079z" />
<glyph unicode="&#x3a9;" horiz-adv-x="1546" d="M133 0v164h270q-115 98 -187.5 253.5t-72.5 330.5q0 324 173 515t472 191q289 0 452 -184.5t163 -501.5q0 -176 -75 -337t-189 -265l274 8v-174h-522v133h2q18 8 39.5 22.5t72 65.5t87 114.5t66.5 176.5t30 246q0 254 -110.5 388t-299.5 134q-195 0 -307.5 -128 t-112.5 -394q0 -135 30 -248t69 -177.5t87 -114.5t71.5 -64.5t37.5 -20.5h2v-133h-522z" />
<glyph unicode="&#x2126;" horiz-adv-x="1546" d="M133 0v164h270q-115 98 -187.5 253.5t-72.5 330.5q0 324 173 515t472 191q289 0 452 -184.5t163 -501.5q0 -176 -75 -337t-189 -265l274 8v-174h-522v133h2q18 8 39.5 22.5t72 65.5t87 114.5t66.5 176.5t30 246q0 254 -110.5 388t-299.5 134q-195 0 -307.5 -128 t-112.5 -394q0 -135 30 -248t69 -177.5t87 -114.5t71.5 -64.5t37.5 -20.5h2v-133h-522z" />
<glyph unicode="&#x3c0;" horiz-adv-x="1413" d="M82 963v112l369 10h419h195h174v-122l-174 -31v-668q0 -125 102 -125q25 0 55.5 6.5t49.5 12.5l18 6l51 -103q-113 -82 -245 -81q-96 0 -161 69.5t-65 226.5v646h-419v-922h-195v922z" />
<glyph unicode="&#x2000;" horiz-adv-x="957" />
<glyph unicode="&#x2001;" horiz-adv-x="1915" />
<glyph unicode="&#x2002;" horiz-adv-x="957" />
<glyph unicode="&#x2003;" horiz-adv-x="1915" />
<glyph unicode="&#x2004;" horiz-adv-x="638" />
<glyph unicode="&#x2005;" horiz-adv-x="478" />
<glyph unicode="&#x2006;" horiz-adv-x="319" />
<glyph unicode="&#x2007;" horiz-adv-x="319" />
<glyph unicode="&#x2008;" horiz-adv-x="239" />
<glyph unicode="&#x2009;" horiz-adv-x="383" />
<glyph unicode="&#x200a;" horiz-adv-x="106" />
<glyph unicode="&#x2010;" horiz-adv-x="768" d="M123 471v174h532v-174h-532z" />
<glyph unicode="&#x2011;" horiz-adv-x="768" d="M123 471v174h532v-174h-532z" />
<glyph unicode="&#x2012;" horiz-adv-x="768" d="M123 471v174h532v-174h-532z" />
<glyph unicode="&#x2013;" horiz-adv-x="1024" d="M0 584v164h1024v-164h-1024z" />
<glyph unicode="&#x2014;" horiz-adv-x="1986" d="M0 584v164h1987v-164h-1987z" />
<glyph unicode="&#x2018;" horiz-adv-x="573" d="M133 1167q0 178 236 430l92 -77q-109 -143 -109 -217q0 -16 23.5 -63.5t23.5 -86.5q0 -59 -36.5 -98t-96.5 -39q-133 0 -133 151z" />
<glyph unicode="&#x2019;" horiz-adv-x="573" d="M113 1094q109 143 108 217q0 16 -23.5 63t-23.5 86q0 59 37 98t96 39q133 0 133 -151q0 -178 -235 -430z" />
<glyph unicode="&#x201a;" horiz-adv-x="573" d="M113 -279q109 143 108 218q0 16 -23.5 63t-23.5 86q0 59 37 98t96 39q133 0 133 -151q0 -178 -235 -430z" />
<glyph unicode="&#x201c;" horiz-adv-x="972" d="M133 1167q0 178 236 430l92 -77q-109 -143 -109 -217q0 -16 23.5 -63.5t23.5 -86.5q0 -59 -36.5 -98t-96.5 -39q-133 0 -133 151zM532 1167q0 178 236 430l92 -77q-109 -143 -108 -217q0 -16 23.5 -63.5t23.5 -86.5q0 -59 -37 -98t-96 -39q-133 0 -134 151z" />
<glyph unicode="&#x201d;" horiz-adv-x="972" d="M113 1094q109 143 108 217q0 16 -23.5 63t-23.5 86q0 59 37 98t96 39q133 0 133 -151q0 -178 -235 -430zM512 1094q109 143 109 217q0 16 -24 63t-24 86q0 59 37 98t97 39q133 0 133 -151q0 -178 -236 -430z" />
<glyph unicode="&#x201e;" horiz-adv-x="972" d="M113 -279q109 143 108 218q0 16 -23.5 63t-23.5 86q0 59 37 98t96 39q133 0 133 -151q0 -178 -235 -430zM512 -279q109 143 109 218q0 16 -24 63t-24 86q0 59 37 98t97 39q133 0 133 -151q0 -178 -236 -430z" />
<glyph unicode="&#x2020;" horiz-adv-x="1013" d="M82 1085v144h346l-8 307l174 10l-10 -317h348v-144l-426 -51zM399 932l21 -850l86 -82l88 82l20 850l-108 -21z" />
<glyph unicode="&#x2021;" horiz-adv-x="1013" d="M82 1085v144h346l-8 307l174 10l-10 -317h348v-144l-426 -51zM166 811v150l340 -50l340 50v-150l-340 -86zM408 621l12 -539l86 -82l88 82l12 539l-100 -21z" />
<glyph unicode="&#x2022;" horiz-adv-x="1034" d="M174 645q0 135 96.5 231.5t231.5 96.5t231 -96.5t96 -231.5t-96 -231.5t-231 -96.5t-231.5 96.5t-96.5 231.5z" />
<glyph unicode="&#x2026;" horiz-adv-x="1474" d="M113 123q0 66 37.5 104.5t95.5 38.5q61 0 97 -38t36 -105q0 -66 -38 -104.5t-95 -38.5q-61 0 -97 37.5t-36 105.5zM604 123q0 66 38 104.5t95 38.5q61 0 97 -38t36 -105q0 -66 -37.5 -104.5t-95.5 -38.5q-61 0 -97 37.5t-36 105.5zM1096 123q0 66 37.5 104.5t95.5 38.5 q61 0 97 -38t36 -105q0 -66 -38 -104.5t-95 -38.5q-61 0 -97 37.5t-36 105.5z" />
<glyph unicode="&#x202f;" horiz-adv-x="383" />
<glyph unicode="&#x2030;" horiz-adv-x="2406" d="M92 1085q0 172 94.5 270.5t243.5 98.5q143 0 230.5 -89t87.5 -259q0 -178 -93.5 -273.5t-244.5 -95.5q-145 0 -231.5 86t-86.5 262zM246 1095.5q0 -225.5 174 -225.5t174 225.5t-174 225.5t-174 -225.5zM317 0l830 1434h184l-829 -1434h-185zM901 328q0 172 94.5 270 t243.5 98q143 0 230 -89t87 -259q0 -178 -93 -273t-244 -95q-145 0 -231.5 86t-86.5 262zM1055 338q0 -225 174 -225t174 225t-174 225t-174 -225zM1649 328q0 172 94 270t244 98q143 0 230 -89t87 -259q0 -178 -93 -273t-245 -95q-145 0 -231 86t-86 262zM1802 338 q0 -225 174 -225t174 225t-174 225t-174 -225z" />
<glyph unicode="&#x2039;" horiz-adv-x="645" d="M113 481v123l297 328l122 -82l-235 -307l235 -307l-122 -82z" />
<glyph unicode="&#x203a;" horiz-adv-x="645" d="M123 236l235 307l-235 307l123 82l297 -328v-123l-297 -327z" />
<glyph unicode="&#x2044;" d="M-31 0l1065 1536l144 -92l-1065 -1536z" />
<glyph unicode="&#x205f;" horiz-adv-x="478" />
<glyph unicode="&#x20ac;" horiz-adv-x="1286" d="M31 492h153q4 -39 12.5 -83t44 -127t89 -144.5t158 -109.5t239.5 -48q253 0 447 166l30 28l-82 123q-18 -16 -50 -38.5t-130 -61.5t-194 -39q-78 0 -140.5 30.5t-96.5 69.5t-57.5 92t-30.5 83t-11 59h499v143h-880v-143zM31 778v144h145q12 66 31.5 128t63.5 139 t104.5 133t160 94t222.5 38q100 0 198.5 -20.5t147.5 -40.5l49 -21l-10 -285h-133l-27 164q-102 39 -256 39q-80 0 -141.5 -35.5t-96 -96t-53 -117t-28.5 -119.5h503v-144h-880z" />
<glyph unicode="&#x2122;" horiz-adv-x="1949" d="M82 1178v256h706v-256h-98l-24 139h-152v-543l133 -26v-93h-424v93l133 26v543h-151l-25 -139h-98zM872 655v93l107 26v543l-107 20v90l285 7l197 -392l202 385l271 7v-93l-103 -24v-543l103 -26v-93h-359v93l117 26v445l-190 -342l-105 -13l-182 344v-434l127 -26v-93 h-363z" />
<glyph unicode="&#x2202;" horiz-adv-x="1239" d="M92 430q0 207 126 339t325 132q200 0 349 -130q15 -14 15 -13q4 61 4 112q0 256 -97 410t-302 154l-205 -21l-20 143q139 41 245 41q584 0 584 -778q0 -121 -18.5 -236.5t-63.5 -226t-110.5 -193.5t-166 -133t-225.5 -50q-195 0 -317.5 122.5t-122.5 327.5zM307 451 q0 -135 66.5 -216t169.5 -81q84 0 149.5 44t101 107.5t59.5 127t31 107.5l7 44q-4 6 -12.5 15t-37 32.5t-62.5 42t-90 34t-120 15.5q-131 0 -196.5 -75t-65.5 -197z" />
<glyph unicode="&#x220f;" horiz-adv-x="1474" d="M72 1311v112l379 11h952v-123l-170 -41h-4v-1741h-205v1741h-573v-1741h-205v1741z" />
<glyph unicode="&#x2211;" horiz-adv-x="1218" d="M61 1280v154h850h185v-349h-133l-52 185h-594l564 -754l-584 -823h635l41 205h143v-369h-1044v154l573 809z" />
<glyph unicode="&#x2212;" horiz-adv-x="1187" d="M102 471v164h983v-164h-983z" />
<glyph unicode="&#x221a;" horiz-adv-x="1372" d="M31 963v112l276 10l285 -901l381 1383l389 10v-113l-242 -30l-424 -1434h-225l-328 932z" />
<glyph unicode="&#x221e;" horiz-adv-x="1802" d="M113 594q0 152 98 250t270 98q113 0 213.5 -59.5t214.5 -165.5q225 225 432 225q166 0 257.5 -89t91.5 -239q0 -152 -98.5 -250t-270.5 -98q-115 0 -216 59.5t-214 166.5q-37 -37 -84 -77t-152.5 -94.5t-193.5 -54.5q-166 0 -257 89t-91 239zM287 604q0 -184 184 -184 q133 0 307 180q-94 92 -165.5 140t-141.5 48q-184 0 -184 -184zM1022 608q96 -94 167 -141t142 -47q184 0 184 184t-184 184q-135 0 -309 -180z" />
<glyph unicode="&#x222b;" horiz-adv-x="782" d="M10 -461l10 133q61 -10 113 -10q84 0 119 57.5t35 188.5q0 162 -10.5 535.5t-10.5 611.5q0 201 78 320.5t252 119.5q27 0 65.5 -8t64.5 -16l26 -7l-15 -139q-51 16 -112 16q-84 0 -119 -57t-35 -188q0 -162 10.5 -536t10.5 -611q0 -440 -328 -441q-27 0 -66 8.5t-63 15.5 z" />
<glyph unicode="&#x2248;" horiz-adv-x="1282" d="M123 297q4 8 11 22.5t36 49t60.5 61.5t87 49.5t114.5 22.5q98 0 230.5 -72t209.5 -72q103 0 188 116l5 7l94 -63q-4 -8 -13 -22.5t-38 -51.5t-60.5 -65.5t-83 -51t-102.5 -22.5q-98 0 -241.5 71.5t-219.5 71.5q-103 0 -180 -108l-4 -7zM123 635q4 8 11 22.5t36 49 t60.5 61.5t87 49.5t114.5 22.5q98 0 230.5 -72t209.5 -72q103 0 188 116l5 7l94 -63q-4 -8 -13 -22.5t-38 -51.5t-60.5 -65.5t-83 -51t-102.5 -22.5q-98 0 -241.5 71.5t-219.5 71.5q-103 0 -180 -108l-4 -7z" />
<glyph unicode="&#x2260;" horiz-adv-x="1300" d="M133 276v164h365l114 236h-479v164h557l129 266h164l-129 -266h313v-164h-391l-114 -236h505v-164h-583l-133 -276h-164l133 276h-287z" />
<glyph unicode="&#x2264;" horiz-adv-x="1259" d="M113 0v160h1034v-160h-1034zM113 635v143l1034 348v-163l-809 -256l809 -267v-164z" />
<glyph unicode="&#x2265;" horiz-adv-x="1259" d="M113 0v160h1034v-160h-1034zM113 276v164l809 267l-809 256v163l1034 -348v-143z" />
<glyph unicode="&#x25ca;" horiz-adv-x="1044" d="M35 750l389 827h184l396 -829l-390 -830h-184zM225 778l310 -684l280 625l-311 682z" />
<glyph unicode="&#xe000;" horiz-adv-x="1085" d="M0 1085h1085v-1085h-1085v1085z" />
<glyph unicode="&#xfb01;" horiz-adv-x="1464" d="M143 922v133l185 20v103q0 211 114.5 315t356.5 104q96 0 198.5 -17t156.5 -35l54 -17v-248h-164l-30 147q-92 16 -205 17q-276 0 -277 -225v-144l707 10v-921l154 -51v-113h-512v113l153 51v758h-502v-758l168 -51v-113h-546v113l174 51v758h-185z" />
<glyph unicode="&#xfb02;" horiz-adv-x="1550" d="M143 922v133l185 20v123q0 190 114.5 294.5t315.5 104.5q86 0 207.5 -5t199.5 -10l78 -5v-1413l150 -51v-113h-512v113l153 51v1259q-143 20 -256 21q-109 0 -177.5 -56.5t-68.5 -148.5v-164h271l-6 -153h-265v-758l168 -51v-113h-546v113l174 51v758h-185z" />
<glyph horiz-adv-x="655" d="M92 1495l103 154l399 -318l-72 -102z" />
<glyph horiz-adv-x="655" d="M61 1331l400 318l102 -154l-430 -266z" />
<glyph horiz-adv-x="1064" d="M164 1393l307 276l123 10l307 -286l-82 -93l-282 222l-291 -222z" />
<glyph horiz-adv-x="821" d="M51 1075l240 103l-240 104l80 141l211 -155l-29 239h164l-28 -239l210 155l80 -141l-239 -104l239 -103l-80 -141l-210 153l28 -239h-164l29 242l-211 -156zM291 1178l82 -11l-31 -77l51 63l56 -66l-33 80l84 11l-84 12l33 78l-56 -64l-51 64l31 -78z" />
</font>
</defs>
</svg>
