<?xml version="1.0" standalone="no"?>
<!DOCTYPE svg PUBLIC "-//W3C//DTD SVG 1.1//EN" "http://www.w3.org/Graphics/SVG/1.1/DTD/svg11.dtd" >
<svg xmlns="http://www.w3.org/2000/svg">
<metadata>
This is a custom SVG webfont generated by Font Squirrel.
Copyright   : All rights reserved
Designer    : Victor Caruso
Foundry     : SCB
Foundry URL : wwwseocreativebraincom
</metadata>
<defs>
<font id="SCBGothicDemiRegular" horiz-adv-x="1538" >
<font-face units-per-em="2048" ascent="1638" descent="-410" />
<missing-glyph horiz-adv-x="542" />
<glyph unicode=" "  horiz-adv-x="542" />
<glyph unicode="&#x09;" horiz-adv-x="542" />
<glyph unicode="&#xa0;" horiz-adv-x="542" />
<glyph unicode="!" horiz-adv-x="638" d="M116 1447h406l-105 -1015h-195zM153 0v334h334v-334h-334z" />
<glyph unicode="&#x22;" horiz-adv-x="804" d="M82 1447h256l-38 -602h-181zM465 1447h257l-37 -602h-181z" />
<glyph unicode="#" horiz-adv-x="1273" d="M74 446l37 211h231l29 163h-227l36 210h228l73 417h211l-73 -417h166l74 417h213l-73 -417h201l-37 -210h-202l-28 -163h204l-37 -211h-204l-79 -446h-214l79 446h-166l-79 -446h-210l78 446h-231zM553 657h167l28 163h-166z" />
<glyph unicode="$" horiz-adv-x="1273" d="M51 410l291 67q50 -188 274 -188q108 0 161.5 41.5t53.5 99.5q0 60 -47.5 92.5t-186.5 60.5q-301 63 -388.5 168t-87.5 246q0 166 110 283t285 138v168h171v-166q326 -30 427 -312l-267 -89q-54 159 -230 159q-187 0 -187 -121q0 -49 35 -82.5t158 -57.5 q206 -41 302 -83.5t161 -137t65 -211.5q0 -161 -115.5 -290.5t-348.5 -152.5v-201h-171v200q-382 41 -465 369z" />
<glyph unicode="%" horiz-adv-x="1496" d="M61 1084q0 158 77 266t222 108t222.5 -107.5t77.5 -264.5q0 -160 -78 -266.5t-223 -106.5q-143 0 -220.5 108t-77.5 263zM255 1088q0 -133 23.5 -186.5t81.5 -53.5t82 53t24 179q0 141 -23 194t-82 53t-82.5 -52.5t-23.5 -186.5zM264 0l801 1447h161l-802 -1447h-160z M835 361q0 158 77 265.5t223 107.5q144 0 222 -108t78 -263q0 -161 -78.5 -267.5t-222.5 -106.5t-221.5 108t-77.5 264zM1029 364q0 -134 24.5 -187t81.5 -53t81.5 53.5t24.5 177.5q0 141 -23 194.5t-82 53.5q-54 0 -80.5 -46t-26.5 -193z" />
<glyph unicode="&#x26;" horiz-adv-x="1558" d="M61 427q0 289 359 419q-84 106 -109 165t-25 125q0 153 122 247t324 94q205 0 318 -102.5t113 -257.5q0 -238 -273 -351l204 -221q88 95 128 286l300 -41q-50 -243 -236 -460q66 -68 148 -68q30 0 88 6v-257q-78 -21 -145 -21q-194 0 -313 139q-198 -158 -452 -158 q-278 0 -414.5 139t-136.5 317zM423 452q0 -85 61 -149.5t164 -64.5q131 0 240 87l-295 329q-170 -58 -170 -202zM605 1146q0 -60 80 -140l60 -62q155 58 155 168q0 59 -42 101.5t-116 42.5q-59 0 -98 -30.5t-39 -79.5z" />
<glyph unicode="'" horiz-adv-x="420" d="M82 1447h256l-38 -602h-181z" />
<glyph unicode="(" horiz-adv-x="637" d="M48 538q0 493 308 909h230q-249 -411 -249 -902q0 -503 244 -906h-231q-302 431 -302 899z" />
<glyph unicode=")" horiz-adv-x="637" d="M50 -361q249 408 249 902q0 502 -244 906h231q303 -434 303 -900q0 -495 -308 -908h-231z" />
<glyph unicode="*" horiz-adv-x="1273" d="M157 1020l84 232l294 -128l-27 323h253l-32 -323l311 128l76 -232l-318 -76l211 -238l-211 -147l-165 277l-164 -277l-214 147l214 238z" />
<glyph unicode="+" horiz-adv-x="1273" d="M101 615v232h421v437h231v-437h420v-232h-420v-436h-231v436h-421z" />
<glyph unicode="," horiz-adv-x="558" d="M114 0v329h329v-297l-212 -370h-117l165 338h-165z" />
<glyph unicode="-" horiz-adv-x="558" d="M25 436v230h507v-230h-507z" />
<glyph unicode="." horiz-adv-x="558" d="M116 0v328h327v-328h-327z" />
<glyph unicode="/" horiz-adv-x="1161" d="M-142 -361l1033 1808h214l-1032 -1808h-215z" />
<glyph unicode="0" horiz-adv-x="1273" d="M72 722q0 316 144 531.5t420 215.5q273 0 419.5 -215.5t146.5 -527.5q0 -319 -147 -533.5t-421 -214.5q-266 0 -414 211t-148 533zM424 727q0 -280 49.5 -389t163.5 -109q113 0 164 107t51 377q0 297 -49.5 405t-164.5 108q-120 0 -167 -110.5t-47 -388.5z" />
<glyph unicode="1" horiz-adv-x="1273" d="M95 0v265h439v828q-258 -157 -403 -216v297q376 111 490 295h246v-1204h401v-265h-1173z" />
<glyph unicode="2" horiz-adv-x="1273" d="M69 0v281q53 40 175 126q298 212 433.5 349.5t135.5 251.5q0 84 -54 138.5t-145 54.5q-212 0 -246 -277l-299 67q101 478 559 478q256 0 393.5 -134.5t137.5 -321.5q0 -193 -144 -344.5t-528 -380.5h692l-25 -288h-1085z" />
<glyph unicode="3" horiz-adv-x="1273" d="M38 419l308 44q44 -225 258 -225q100 0 162 53t62 143q0 94 -57 140.5t-217 46.5h-132v253h153q130 0 176.5 54.5t46.5 115.5q0 69 -51.5 122.5t-143.5 53.5q-176 0 -221 -185l-300 47q37 168 179.5 277.5t351.5 109.5q218 0 367 -104t149 -284q0 -236 -248 -323 q291 -77 291 -344q0 -190 -149 -313t-410 -123q-252 0 -398.5 126.5t-176.5 314.5z" />
<glyph unicode="4" horiz-adv-x="1273" d="M50 334v253l584 882h387v-882h202v-253h-202v-334h-338v334h-633zM305 587h394v490q0 29 2 69l2 59z" />
<glyph unicode="5" horiz-adv-x="1273" d="M81 389l318 48q48 -191 241 -191q106 0 168.5 65.5t62.5 154.5q0 94 -65.5 160.5t-162.5 66.5q-134 0 -207 -112l-277 45l57 821h912l-37 -297h-632l-23 -322q116 124 308 124q196 0 333 -129t137 -332q0 -226 -148 -369.5t-414 -143.5q-462 0 -571 411z" />
<glyph unicode="6" horiz-adv-x="1273" d="M85 704q0 333 150 549t444 216q214 0 343 -111.5t161 -275.5l-292 -78q-41 222 -216 222q-254 0 -254 -483q103 165 324 165q203 0 331 -132t128 -312q0 -192 -141.5 -339t-377.5 -147q-233 0 -368.5 119.5t-183.5 285t-48 321.5zM438 446q0 -96 61.5 -161t155.5 -65 q92 0 153.5 62t61.5 176q0 101 -66 159.5t-148 58.5q-86 0 -152 -63.5t-66 -166.5z" />
<glyph unicode="7" horiz-adv-x="1273" d="M124 1148l25 299h1013v-258q-99 -104 -216 -322.5t-155.5 -427.5t-38.5 -332q0 -37 4 -107h-388q3 171 31.5 311.5t110 321t164.5 297.5t184 218h-734z" />
<glyph unicode="8" horiz-adv-x="1273" d="M63 390q0 228 258 322q-210 117 -210 330q0 177 139.5 302t389.5 125q240 0 380.5 -108t140.5 -273q0 -211 -219 -307q269 -111 269 -356q0 -195 -154 -321t-443 -126q-267 0 -409 116t-142 296zM368 403q0 -90 70 -141.5t197 -51.5q110 0 179 39.5t69 117.5 q0 60 -49.5 110t-285.5 127q-180 -53 -180 -201zM435 1094q0 -65 50.5 -111t234.5 -107q146 44 146 184q0 85 -61 138t-174 53q-93 0 -144.5 -44t-51.5 -113z" />
<glyph unicode="9" horiz-adv-x="1273" d="M77 987q0 215 144 348.5t387 133.5q175 0 305 -79.5t199.5 -254t69.5 -391.5q0 -325 -149.5 -545.5t-447.5 -220.5q-383 0 -475 352l298 54q45 -153 192 -153q100 0 171.5 81.5t75.5 380.5q-124 -149 -323 -149q-193 0 -320 123t-127 320zM399 1008q0 -87 57.5 -152.5 t154.5 -65.5q96 0 157.5 67.5t61.5 152.5q0 86 -61 152.5t-154 66.5q-95 0 -155.5 -67.5t-60.5 -153.5z" />
<glyph unicode=":" horiz-adv-x="558" d="M116 1v327h327v-327h-327zM116 749v322h327v-322h-327z" />
<glyph unicode=";" horiz-adv-x="558" d="M114 -4v328h329v-296l-212 -371h-117l165 339h-165zM114 752v319h329v-319h-329z" />
<glyph unicode="&#x37e;" horiz-adv-x="558" d="M114 -4v328h329v-296l-212 -371h-117l165 339h-165zM114 752v319h329v-319h-329z" />
<glyph unicode="&#x3c;" horiz-adv-x="1273" d="M145 601v250l940 486v-297l-624 -315l624 -315v-294z" />
<glyph unicode="=" horiz-adv-x="1273" d="M101 405v232h1072v-232h-1072zM101 803v232h1072v-232h-1072z" />
<glyph unicode="&#x3e;" horiz-adv-x="1273" d="M188 116v296l624 314l-624 316v295l940 -486v-251z" />
<glyph unicode="?" horiz-adv-x="1107" d="M29 988q32 239 175 362t348 123q210 0 352 -120.5t142 -306.5q0 -230 -236 -385q-103 -67 -124.5 -105.5t-21.5 -141.5h-274v41q0 193 30 243t160 146q68 50 94.5 92.5t26.5 106.5q0 78 -50 123.5t-121 45.5q-188 0 -211 -265zM384 0v320h333v-320h-333z" />
<glyph unicode="@" horiz-adv-x="1686" d="M84 719q0 328 230 549.5t557 221.5q313 0 522 -195.5t209 -469.5q0 -218 -128 -371.5t-304 -153.5q-120 0 -181 92q-81 -96 -196 -96q-127 0 -218.5 109t-91.5 287q0 182 102.5 298t246.5 116q92 0 168 -63l12 46h201l-59 -478q-5 -48 -5 -83q0 -47 41 -47q75 0 147 96.5 t72 242.5q0 215 -155 355t-380 140q-242 0 -409.5 -171.5t-167.5 -425.5q0 -236 156.5 -411t440.5 -175q77 0 178 17.5t275 105.5l70 -174q-254 -133 -523 -133q-237 0 -415.5 95t-286.5 277t-108 399zM695 685q0 -79 30.5 -132t82.5 -53q66 0 121.5 68.5t55.5 179.5 q0 60 -41 106.5t-99 46.5q-65 0 -107.5 -59.5t-42.5 -156.5z" />
<glyph unicode="A" horiz-adv-x="1319" d="M0 0l463 1447h393l453 -1447h-365l-88 298h-468l-91 -298h-297zM470 565h307l-154 508z" />
<glyph unicode="B" horiz-adv-x="1414" d="M145 0v1447h674q182 0 273 -44.5t150.5 -127.5t59.5 -201q0 -241 -261 -321q150 -34 225.5 -135t75.5 -219q0 -163 -123 -281t-400 -118h-674zM483 268h261q134 0 189 46.5t55 130.5q0 70 -53 121t-176 51h-276v-349zM483 874h257q141 0 177.5 56t36.5 107q0 55 -30 94.5 t-66 49.5t-142 10h-233v-317z" />
<glyph unicode="C" horiz-adv-x="1362" d="M76 724q0 328 174 536.5t475 208.5q522 0 587 -561l-355 -22q-7 306 -238 306q-265 0 -265 -471q0 -273 72 -370t201 -97q210 0 257 274l328 -20q-32 -260 -193.5 -395t-395.5 -135q-287 0 -467 198t-180 548z" />
<glyph unicode="D" horiz-adv-x="1407" d="M145 0v1447h442q271 0 403.5 -75t237 -236.5t104.5 -408.5q0 -310 -183 -518.5t-506 -208.5h-498zM478 272h140q185 0 275.5 138.5t90.5 325.5q0 131 -51.5 243t-128 157t-183.5 45h-143v-909z" />
<glyph unicode="E" horiz-adv-x="1237" d="M144 0v1447h1035v-276h-690v-297h542v-272h-542v-316h690v-286h-1035z" />
<glyph unicode="F" horiz-adv-x="1203" d="M145 0v1447h1029v-286h-677v-325h535v-270h-535v-566h-352z" />
<glyph unicode="G" horiz-adv-x="1393" d="M76 704q0 345 168 555t457 210q241 0 389.5 -135.5t181.5 -361.5l-322 -42q-39 262 -249 262q-138 0 -208.5 -124.5t-70.5 -355.5q0 -222 76.5 -340t217.5 -118q91 0 162.5 59.5t71.5 190.5h-273v270h595v-774h-155q-17 82 -49 166q-154 -188 -394 -188 q-283 0 -440.5 202.5t-157.5 523.5z" />
<glyph unicode="H" horiz-adv-x="1407" d="M145 0v1447h333v-564h453v564h333v-1447h-333v597h-453v-597h-333z" />
<glyph unicode="I" horiz-adv-x="628" d="M145 0v1447h338v-1447h-338z" />
<glyph unicode="J" horiz-adv-x="826" d="M15 0v281q101 -17 173 -17q63 0 99.5 23t53.5 55.5t17 114.5v990h338v-1033q0 -220 -105.5 -328t-346.5 -108q-106 0 -229 22z" />
<glyph unicode="K" horiz-adv-x="1368" d="M145 0v1447h333v-681l454 681h324l-348 -516l435 -931h-374l-287 628l-204 -296v-332h-333z" />
<glyph unicode="L" horiz-adv-x="1092" d="M145 0v1447h344v-1161h575v-286h-919z" />
<glyph unicode="M" horiz-adv-x="1866" d="M144 0v1447h528l253 -866l267 866h529v-1447h-341v1180l-363 -1180h-233l-356 1180v-1180h-284z" />
<glyph unicode="N" horiz-adv-x="1403" d="M145 0v1447h366l493 -853q-7 63 -7 96v757h262v-1447h-289l-567 977q1 -37 2 -48q4 -38 4 -63v-866h-264z" />
<glyph unicode="O" horiz-adv-x="1387" d="M76 728q0 317 162.5 529t462.5 212q303 0 457 -226t154 -518q0 -315 -159 -531t-464 -216q-293 0 -453 219.5t-160 530.5zM431 724q0 -470 268 -470q258 0 258 469t-258 469q-268 0 -268 -468z" />
<glyph unicode="P" horiz-adv-x="1310" d="M144 0v1447h570q191 0 292.5 -41t181 -146t79.5 -257q0 -107 -42.5 -209t-120 -160t-150 -77.5t-227.5 -19.5h-238v-537h-345zM477 800h220q127 0 177.5 58.5t50.5 133.5q0 88 -56.5 140t-172.5 52h-219v-384z" />
<glyph unicode="Q" horiz-adv-x="1397" d="M76 724q0 303 158 524t466 221q303 0 462 -220t159 -528q0 -248 -90.5 -413t-213.5 -236q0 -111 127 -111q37 0 128 10v-256q-61 -14 -121 -14q-194 0 -259.5 83.5t-76.5 209.5q-81 -10 -137 -10q-274 0 -438 214.5t-164 525.5zM431 724q0 -471 266 -471q270 0 270 465 q0 474 -268 474t-268 -468z" />
<glyph unicode="R" horiz-adv-x="1426" d="M145 0v1447h636q176 0 282.5 -41t176.5 -150t70 -243q0 -260 -251 -374l267 -639h-374l-223 573h-242v-573h-342zM487 820h207q102 0 148 14.5t82 64t36 112.5q0 61 -36 108.5t-78.5 58.5t-158.5 11h-200v-369z" />
<glyph unicode="S" horiz-adv-x="1260" d="M0 379l314 71q53 -202 294 -202q117 0 174.5 45t57.5 108t-52 98t-201 66q-276 57 -394 156t-118 290q0 193 140.5 325.5t381.5 132.5q426 0 548 -340l-289 -97q-58 172 -246 172q-202 0 -202 -130q0 -52 37.5 -88t170.5 -63q221 -44 324 -89.5t173.5 -147t70.5 -226.5 q0 -196 -151 -339t-448 -143q-222 0 -378.5 101t-206.5 300z" />
<glyph unicode="T" horiz-adv-x="1062" d="M0 1161v286h1062v-286h-358v-1161h-344v1161h-360z" />
<glyph unicode="U" horiz-adv-x="1409" d="M130 546v901h368v-901q0 -117 19.5 -172t78.5 -87.5t145 -32.5q95 0 155 32t79.5 84.5t19.5 175.5v901h291v-901q0 -218 -50 -325t-184 -175t-343 -68t-332.5 61.5t-185 175t-61.5 331.5z" />
<glyph unicode="V" horiz-adv-x="1206" d="M-15 1447h361l289 -1035l300 1035h285l-436 -1447h-364z" />
<glyph unicode="W" horiz-adv-x="1895" d="M15 1447h345l200 -883q1 -6 11 -47q5 -15 12 -44l236 974h313l244 -974q7 27 21 91l206 883h279l-365 -1447h-332l-238 957l-229 -957h-331z" />
<glyph unicode="X" horiz-adv-x="1301" d="M3 0l447 770l-396 677h394l235 -440l246 440h317l-396 -672l447 -775h-392l-290 526l-291 -526h-321z" />
<glyph unicode="Y" horiz-adv-x="1132" d="M-58 1447h393l277 -549l274 549h304l-454 -837v-610h-340v610z" />
<glyph unicode="Z" horiz-adv-x="1255" d="M43 0v246l730 927h-681v274h1096v-249l-731 -921h755v-277h-1169z" />
<glyph unicode="[" horiz-adv-x="637" d="M116 -361v1808h455v-136h-210v-1541h210v-131h-455z" />
<glyph unicode="\" horiz-adv-x="1161" d="M58 1447h213l1034 -1808h-215z" />
<glyph unicode="]" horiz-adv-x="637" d="M66 -226h210v1541h-210v132h456v-1808h-456v135z" />
<glyph unicode="^" horiz-adv-x="1085" d="M10 726l342 730h382l342 -730h-304l-229 498l-229 -498h-304z" />
<glyph unicode="_" horiz-adv-x="1085" d="M0 -100h1085v-253h-1085v253z" />
<glyph unicode="`" horiz-adv-x="1085" d="M247 1429l81 178l438 -258l-53 -118z" />
<glyph unicode="a" horiz-adv-x="1175" d="M66 279q0 100 54 185t173.5 133.5t436.5 71.5v61q0 156 -155 156q-167 0 -186 -156l-291 28q28 182 172 258.5t327 76.5q109 0 205.5 -25.5t150.5 -76.5t73 -107.5t19 -197.5v-486q0 -140 20 -200h-306q-15 64 -15 167q-80 -114 -160 -151.5t-182 -37.5 q-151 0 -243.5 81.5t-92.5 219.5zM399 313q0 -56 35 -97t99 -41q84 0 140.5 69.5t56.5 171.5v97q-331 -33 -331 -200z" />
<glyph unicode="b" horiz-adv-x="1181" d="M130 0v1447h316v-511q85 157 265 157q185 0 292 -149t107 -409q0 -250 -110.5 -403.5t-317.5 -153.5q-109 0 -176.5 37t-136.5 149q-30 -30 -70 -164h-169zM446 424q0 -112 47.5 -169.5t112.5 -57.5q79 0 130 69.5t51 269.5q0 228 -52.5 286.5t-119.5 58.5 q-78 0 -123.5 -66t-45.5 -186v-205z" />
<glyph unicode="c" horiz-adv-x="1110" d="M69 529q0 251 145.5 407.5t389.5 156.5q196 0 325 -117.5t143 -294.5l-295 -17q-15 192 -167 192q-188 0 -188 -307q0 -205 52.5 -260t127.5 -55q146 0 175 186l295 -18q-18 -190 -150 -307t-341 -117q-227 0 -369.5 150t-142.5 401z" />
<glyph unicode="d" horiz-adv-x="1171" d="M72 524q0 267 102.5 418t296.5 151q170 0 263 -135v489h306v-1447h-292v167q-108 -189 -294 -189q-177 0 -279.5 144.5t-102.5 401.5zM399 518q0 -317 170 -317q66 0 115.5 57.5t49.5 163.5v200q0 252 -153 252q-182 0 -182 -356z" />
<glyph unicode="e" horiz-adv-x="1160" d="M69 524q0 255 145.5 412t374.5 157q207 0 355 -146t148 -465h-689q-1 -28 -1 -50q0 -114 61 -172.5t145 -58.5q158 0 190 169l286 -21q-119 -371 -486 -371q-160 0 -272 64t-184.5 187t-72.5 295zM402 666h380q-15 220 -181 220q-178 0 -199 -220z" />
<glyph unicode="f" horiz-adv-x="694" d="M29 825v246h124q2 165 23.5 241t111.5 134.5t245 58.5q64 0 146 -11v-244q-67 5 -112 5q-65 0 -86 -34t-21 -110v-40h194v-246h-194v-825h-307v825h-124z" />
<glyph unicode="g" horiz-adv-x="1200" d="M22 -128q0 143 184 193q-136 67 -136 190q0 154 214 240q-190 78 -190 262q0 149 131 242.5t362 93.5q147 0 283 -47q10 91 54 150t187 59q47 0 89 -8v-201q-50 11 -84 11q-105 0 -123 -93q86 -91 86 -204q0 -152 -126.5 -242t-365.5 -90q-85 0 -165 16q-54 -32 -54 -81 q0 -56 45.5 -74t219.5 -26q247 -13 340 -31t157 -87t64 -171q0 -148 -136.5 -249.5t-482.5 -101.5q-326 0 -439.5 70.5t-113.5 178.5zM297 -80q0 -72 92 -90t216 -18q162 0 227.5 24.5t65.5 78.5q0 42 -54.5 64t-291.5 22l-63 -1q-59 0 -79 3q-22 4 -36 4q-19 0 -48 -25 t-29 -62zM411 762q0 -163 175 -163q85 0 133 47.5t48 115.5q0 64 -45.5 112t-136.5 48q-81 0 -127.5 -44t-46.5 -116z" />
<glyph unicode="h" horiz-adv-x="1180" d="M130 0v1447h307v-523q87 169 289 169q108 0 185 -47t108 -121.5t31 -217.5v-707h-314v603q0 108 -8.5 148.5t-39 67.5t-75.5 27q-60 0 -118 -46t-58 -197v-603h-307z" />
<glyph unicode="i" horiz-adv-x="575" d="M130 0v1071h316v-1071h-316zM130 1161v316h316v-316h-316z" />
<glyph unicode="j" horiz-adv-x="583" d="M-66 -121q50 -5 73 -5q64 0 93 37.5t29 146.5v1013h324v-1013q0 -84 -2.5 -154.5t-38.5 -143t-114 -110t-191 -37.5q-65 0 -173 18v248zM129 1158v319h324v-319h-324z" />
<glyph unicode="k" horiz-adv-x="1178" d="M130 0v1447h298v-867l47 58q30 40 50 65l312 368h308l-308 -363l349 -708h-349l-223 485l-186 -212v-273h-298z" />
<glyph unicode="l" horiz-adv-x="575" d="M130 0v1447h316v-1447h-316z" />
<glyph unicode="m" horiz-adv-x="1789" d="M130 0v1071h297v-164q75 186 301 186q205 0 296 -186q89 186 311 186q106 0 182 -43.5t109 -113.5t33 -241v-695h-316v593q0 125 -7.5 162.5t-38.5 62.5t-86 25q-52 0 -106.5 -37.5t-54.5 -212.5v-593h-314v593q0 128 -12 165.5t-44 61t-82 23.5q-82 0 -121.5 -51.5 t-39.5 -198.5v-593h-307z" />
<glyph unicode="n" horiz-adv-x="1191" d="M130 0v1071h294v-182q73 130 144 167t154 37q152 0 245.5 -82t93.5 -323v-688h-316v601q0 109 -8.5 149.5t-41.5 68.5t-82 28q-167 0 -167 -246v-601h-316z" />
<glyph unicode="o" horiz-adv-x="1161" d="M69 537q0 171 62 290.5t170 192.5t274 73q244 0 381.5 -160t137.5 -401q0 -237 -142.5 -395.5t-379.5 -158.5q-229 0 -366 157t-137 402zM402 541q0 -190 43.5 -272.5t135.5 -82.5q80 0 130 70t50 269q0 211 -44 286t-134 75t-135.5 -69.5t-45.5 -275.5z" />
<glyph unicode="p" horiz-adv-x="1171" d="M130 -361v1432h291v-157q80 179 282 179q174 0 284.5 -139.5t110.5 -405.5q0 -283 -112 -426.5t-291 -143.5q-181 0 -258 141v-480h-307zM437 469q0 -114 13.5 -157.5t58 -78t96.5 -34.5q65 0 116 66.5t51 292.5q0 316 -168 316q-63 0 -115 -56t-52 -190v-159z" />
<glyph unicode="q" horiz-adv-x="1180" d="M72 534q0 261 116 410t324 149q205 0 302 -170q52 70 80 148h171q-15 -96 -15 -148v-1284h-307v472q-99 -133 -254 -133q-199 0 -308 148.5t-109 407.5zM405 530q0 -196 45 -264t120 -68q69 0 121 68t52 175v215q0 104 -47.5 163.5t-113.5 59.5q-72 0 -124.5 -60.5 t-52.5 -288.5z" />
<glyph unicode="r" horiz-adv-x="753" d="M130 0v1071h290v-200q67 223 231 223q23 0 57 -3v-312q-96 0 -149.5 -29.5t-87.5 -106.5t-34 -207v-436h-307z" />
<glyph unicode="s" horiz-adv-x="1027" d="M12 295l266 39q33 -144 237 -144q79 0 133 28t54 76q0 74 -120 88q-324 40 -426.5 124t-102.5 235q0 153 118.5 252.5t333.5 99.5q169 0 271 -67t156 -214l-230 -62q-41 146 -209 146q-159 0 -159 -97q0 -38 29 -60.5t152 -38.5q184 -25 271.5 -56.5t139 -107 t51.5 -185.5q0 -165 -125.5 -269t-351.5 -104q-409 0 -488 317z" />
<glyph unicode="t" horiz-adv-x="763" d="M1 825v246h188l25 315l271 22v-337h232v-246h-232v-453q0 -85 25.5 -113.5t120.5 -28.5q43 0 100 4v-234q-137 -23 -198 -23q-197 0 -279.5 75.5t-82.5 273.5v499h-170z" />
<glyph unicode="u" horiz-adv-x="1175" d="M130 371v700h307v-700q0 -144 118 -144q61 0 105.5 34.5t56.5 73.5t12 135v601h316v-1071h-292v182q-83 -204 -316 -204q-121 0 -185.5 45t-93 123t-28.5 225z" />
<glyph unicode="v" horiz-adv-x="979" d="M-7 1071h328l206 -679l211 679h234l-367 -1071h-246z" />
<glyph unicode="w" horiz-adv-x="1565" d="M12 1071h329l174 -654l163 654h287l156 -659l182 659h244l-323 -1071h-278l-170 689l-169 -689h-266z" />
<glyph unicode="x" horiz-adv-x="1071" d="M0 0l353 576l-304 495h360l171 -290l169 290h271l-309 -495l361 -576h-361l-222 369l-219 -369h-270z" />
<glyph unicode="y" horiz-adv-x="966" d="M-7 1071h333l206 -637l197 637h230l-335 -1028q-56 -171 -95.5 -248t-114.5 -123t-208 -46q-67 0 -152 13v242q84 -15 155 -15q93 0 125 35t48 99z" />
<glyph unicode="z" horiz-adv-x="929" d="M43 0v230l472 625h-432v216h782v-198l-477 -643h498v-230h-843z" />
<glyph unicode="{" horiz-adv-x="637" d="M88 495v116q120 17 120 152v396q0 159 59 224t190 65q8 0 44 -2q51 -2 99 -3v-125l-32 1q-63 0 -79.5 -22t-16.5 -118v-384q0 -64 -20 -131.5t-111 -120.5q131 -68 131 -254v-382q0 -89 13 -114.5t76 -25.5l39 1v-125q-34 0 -99 -3q-36 -3 -44 -3q-131 0 -190 65.5 t-59 224.5v394q0 89 -29.5 125.5t-90.5 48.5z" />
<glyph unicode="|" horiz-adv-x="1085" d="M393 -361v1808h300v-1808h-300z" />
<glyph unicode="}" horiz-adv-x="637" d="M88 -232l33 -1q63 0 79 21.5t16 118.5v383q0 65 20.5 133t110.5 120q-131 68 -131 253v383q0 89 -13 114.5t-76 25.5l-39 -1v125q32 0 99 3q36 2 45 2q140 0 194 -70t54 -219v-395q0 -103 39 -135.5t81 -38.5v-115q-120 -17 -120 -153v-395q0 -159 -59.5 -224.5 t-189.5 -65.5q-8 0 -44 3q-50 2 -99 3v125z" />
<glyph unicode="~" horiz-adv-x="1273" d="M108 613q69 175 145.5 240t185.5 65q72 0 227 -57q135 -50 183 -50q92 0 151 111l165 -102q-124 -294 -346 -294q-55 0 -216 57q-142 50 -181 50q-93 0 -153 -131z" />
<glyph unicode="&#xa1;" horiz-adv-x="638" d="M117 -361l105 1014h195l106 -1014h-406zM152 753v332h335v-332h-335z" />
<glyph unicode="&#xa2;" horiz-adv-x="1273" d="M177 737q0 223 114 365t300 158v225h171v-225q324 -45 379 -386l-280 -16q-25 188 -175 188q-193 0 -193 -323q0 -128 48 -205.5t145 -77.5q157 0 175 185l274 -21q-45 -327 -373 -387v-275h-171v275q-142 21 -233.5 98.5t-136 185t-44.5 236.5z" />
<glyph unicode="&#xa3;" horiz-adv-x="1273" d="M15 0v270h94q116 0 170.5 71.5t54.5 170.5q0 54 -17 148h-199v223h167q-16 97 -16 153q0 205 126.5 319t332.5 114q319 0 419 -274l-271 -109q-34 139 -145 139q-52 0 -93.5 -38t-41.5 -129q0 -46 20 -175h237v-223h-212q0 -141 -34.5 -222t-131.5 -168h217 q188 0 246 203l294 -88q-102 -385 -527 -385h-690z" />
<glyph unicode="&#xa4;" horiz-adv-x="1446" d="M64 1329l134 135l221 -220q142 100 311 100q156 0 297 -97l217 216l135 -134l-217 -217q103 -150 103 -304q0 -158 -100 -299l219 -220l-132 -134l-220 218q-144 -102 -308 -102q-156 0 -306 101l-219 -216l-132 133l217 218q-100 141 -100 301q0 162 100 301zM424 808 q0 -125 88.5 -213.5t211.5 -88.5q124 0 212.5 88.5t88.5 213.5q0 124 -87.5 213t-213.5 89q-123 0 -211.5 -88.5t-88.5 -213.5z" />
<glyph unicode="&#xa5;" horiz-adv-x="1274" d="M41 1447h365l277 -550l274 550h276l-283 -521h237v-188h-340l-70 -144h410v-189h-410v-405h-281v405h-409v189h409l-69 144h-340v188h237z" />
<glyph unicode="&#xa6;" horiz-adv-x="1085" d="M393 333h300v-694h-300v694zM393 691v756h300v-756h-300z" />
<glyph unicode="&#xa7;" horiz-adv-x="1273" d="M125 -63l266 49q105 -160 276 -160q96 0 151.5 36t55.5 90q0 56 -53 103t-268 124q-153 56 -224.5 97.5t-117.5 114t-46 168.5q0 184 145 319q-105 84 -105 229q0 154 119.5 258t335.5 104q339 0 460 -266l-225 -62q-54 131 -235 131q-90 0 -134.5 -32.5t-44.5 -77.5 q0 -52 49 -82.5t265 -112.5q119 -47 182.5 -87t104.5 -109.5t41 -163.5q0 -165 -135 -292q160 -101 160 -289q0 -186 -135.5 -298t-359.5 -112q-182 0 -326 78t-202 243zM429 650q0 -57 59 -104.5t293 -131.5q80 58 80 121q0 41 -35.5 82.5t-181.5 98.5l-130 52 q-85 -46 -85 -118z" />
<glyph unicode="&#xa8;" horiz-adv-x="1085" d="M238 1384q0 49 35 86.5t91 37.5q49 0 88.5 -32t39.5 -91q0 -56 -37.5 -89.5t-90.5 -33.5q-58 0 -92 37.5t-34 84.5zM593 1384q0 49 35.5 86.5t90.5 37.5q51 0 89 -32.5t38 -90.5q0 -56 -37.5 -89.5t-90.5 -33.5q-58 0 -91.5 37.5t-33.5 84.5z" />
<glyph unicode="&#xa9;" horiz-adv-x="1679" d="M93 723q0 305 218.5 525.5t529.5 220.5q313 0 529 -222.5t216 -523.5q0 -299 -215.5 -522.5t-529.5 -223.5q-312 0 -530 220.5t-218 525.5zM232 724q0 -255 179.5 -437t429.5 -182q249 0 427.5 181t178.5 437q0 254 -176.5 436.5t-426.5 182.5q-254 0 -433 -181.5 t-179 -436.5zM444 724q0 197 112 322t304 125q335 0 375 -337l-227 -12q-5 184 -153 184q-169 0 -169 -293q0 -151 45 -211.5t128 -60.5q138 0 166 165l210 -12q-19 -155 -122.5 -236t-253.5 -81q-189 0 -302 120t-113 327z" />
<glyph unicode="&#xaa;" horiz-adv-x="771" d="M51 988q0 92 75.5 156.5t336.5 80.5v30q0 85 -87 85q-95 0 -103 -93l-204 19q32 211 330 211q107 0 175 -34.5t88 -78t20 -135.5v-287q0 -81 14 -125h-214q-9 53 -10 76q-72 -88 -202 -88q-96 0 -157.5 49.5t-61.5 133.5zM281 1010q0 -75 71 -75q48 0 79.5 38.5 t31.5 96.5v48q-182 -20 -182 -108z" />
<glyph unicode="&#xab;" horiz-adv-x="739" d="M72 558l180 309h107l-107 -309l107 -305h-107zM359 558l183 309h111l-111 -309l111 -305h-111z" />
<glyph unicode="&#xac;" horiz-adv-x="1273" d="M166 319v268h941v-587h-298v319h-643z" />
<glyph unicode="&#xad;" horiz-adv-x="558" d="M25 436v230h507v-230h-507z" />
<glyph unicode="&#xae;" horiz-adv-x="1679" d="M93 723q0 305 218.5 525.5t529.5 220.5q313 0 529 -222.5t216 -523.5q0 -299 -215.5 -522.5t-529.5 -223.5q-312 0 -530 220.5t-218 525.5zM232 724q0 -255 179.5 -437t429.5 -182q249 0 427.5 181t178.5 437q0 254 -176.5 436.5t-426.5 182.5q-254 0 -433 -181.5 t-179 -436.5zM483 289v869h390q174 0 257 -72.5t83 -190.5q0 -156 -154 -224l167 -382h-249l-140 346h-128v-346h-226zM709 788h118q89 0 122.5 28t33.5 81q0 35 -20.5 62t-44.5 33.5t-95 6.5h-114v-211z" />
<glyph unicode="&#xaf;" horiz-adv-x="1085" d="M0 1686v254h1085v-254h-1085z" />
<glyph unicode="&#xb0;" horiz-adv-x="1273" d="M335 1172q0 125 88 215t212 90q126 0 214.5 -91.5t88.5 -216.5q0 -127 -88 -215.5t-211 -88.5q-125 0 -214.5 90t-89.5 217zM491 1172q0 -62 44 -105.5t103 -43.5t101.5 43.5t42.5 103.5q0 62 -42.5 106t-102.5 44t-103 -43.5t-43 -104.5z" />
<glyph unicode="&#xb1;" horiz-adv-x="1273" d="M101 -108v231h1072v-231h-1072zM101 615v232h421v437h231v-437h420v-232h-420v-392h-231v392h-421z" />
<glyph unicode="&#xb2;" horiz-adv-x="839" d="M48 1165q65 296 366 296q168 0 257.5 -80.5t89.5 -196.5q0 -119 -96 -210t-314 -210h424l-17 -185h-709v177q37 26 115 77q191 125 276.5 204.5t85.5 143.5q0 48 -33 77.5t-88 29.5q-136 0 -152 -164z" />
<glyph unicode="&#xb3;" horiz-adv-x="839" d="M28 840l210 27q27 -133 161 -133q61 0 98.5 29t37.5 79q0 54 -35.5 79t-132.5 25h-92v163h104q136 0 136 94q0 37 -31 67t-86 30q-110 0 -137 -112l-206 31q25 106 118.5 174t230.5 68q143 0 240.5 -64t97.5 -174q0 -135 -141 -188q169 -49 169 -205q0 -116 -97 -190 t-269 -74q-166 0 -261.5 78t-114.5 196z" />
<glyph unicode="&#xb4;" horiz-adv-x="1085" d="M319 1349l439 258l80 -178l-466 -198z" />
<glyph unicode="&#xb5;" horiz-adv-x="1273" d="M152 -361v1432h315v-560q0 -124 12.5 -184t55 -98.5t99.5 -38.5q84 0 128.5 64t44.5 257v560h314v-1071h-254l-6 161q-60 -183 -212 -183q-70 0 -124.5 46t-57.5 99v-484h-315z" />
<glyph unicode="&#xb6;" horiz-adv-x="1273" d="M1 1077q0 113 41 192.5t109.5 121.5t127.5 48.5t301 7.5h660v-135h-174v-1673h-127v1673h-129v-1673h-135v1067h-206q-170 0 -258.5 27t-149 116t-60.5 228zM299 1074q0 -101 36.5 -154t93 -68.5t186.5 -15.5h60v479h-56q-131 0 -189.5 -14t-94.5 -71t-36 -156z" />
<glyph unicode="&#xb7;" horiz-adv-x="327" d="M0 389v321h328v-321h-328z" />
<glyph unicode="&#xb8;" horiz-adv-x="1085" d="M328 -375l35 91q86 -49 144 -49q76 0 76 69q0 37 -34 57t-80 20q-20 0 -57 -4l68 191h105l-37 -106q20 3 31 3q80 0 132 -46.5t52 -113.5q0 -79 -58 -127t-157 -48q-110 0 -220 63z" />
<glyph unicode="&#xb9;" horiz-adv-x="839" d="M39 1093v192q245 65 317 176h168v-712h228v-170h-707v170h252v469q-152 -85 -258 -125z" />
<glyph unicode="&#xba;" horiz-adv-x="764" d="M53 1143q0 160 95 247.5t230 87.5q156 0 244.5 -96t88.5 -242q0 -144 -91.5 -239t-243.5 -95q-139 0 -231 91t-92 246zM283 1145q0 -203 99 -203q100 0 100 195q0 122 -26 163t-72 41q-56 0 -78.5 -44.5t-22.5 -151.5z" />
<glyph unicode="&#xbb;" horiz-adv-x="739" d="M87 253l111 305l-111 309h111l183 -309l-183 -305h-111zM381 253l107 305l-107 309h107l180 -309l-180 -305h-107z" />
<glyph unicode="&#xbc;" horiz-adv-x="1910" d="M24 1093v192q245 65 317 176h168v-712h228v-170h-707v170h252v469q-152 -85 -258 -125zM475 0l801 1447h169l-802 -1447h-168zM1148 198v159l378 525h259v-521h131v-163h-131v-198h-220v198h-417zM1323 352h249v357z" />
<glyph unicode="&#xbd;" horiz-adv-x="1910" d="M28 1093v192q245 65 317 176h168v-712h228v-170h-707v170h252v469q-152 -85 -258 -125zM471 0l801 1447h169l-802 -1447h-168zM1159 586q65 296 366 296q168 0 257.5 -80.5t89.5 -196.5q0 -119 -96 -210t-314 -210h424l-17 -185h-709v177q37 26 115 77 q191 125 276.5 204.5t85.5 143.5q0 48 -33 77.5t-88 29.5q-136 0 -152 -164z" />
<glyph unicode="&#xbe;" horiz-adv-x="1910" d="M28 840l210 27q27 -133 161 -133q61 0 98.5 29t37.5 79q0 54 -35.5 79t-132.5 25h-92v163h104q136 0 136 94q0 37 -31 67t-86 30q-110 0 -137 -112l-206 31q25 106 118.5 174t230.5 68q143 0 240.5 -64t97.5 -174q0 -135 -141 -188q169 -49 169 -205q0 -116 -97 -190 t-269 -74q-166 0 -261.5 78t-114.5 196zM513 0l801 1447h169l-802 -1447h-168zM1101 198v159l378 525h259v-521h131v-163h-131v-198h-220v198h-417zM1276 352h249v357z" />
<glyph unicode="&#xbf;" horiz-adv-x="1106" d="M61 58q0 231 236 386q99 66 123 103.5t24 122.5h272l1 -33q0 -170 -32 -226t-158 -150q-68 -50 -94 -93t-26 -107q0 -78 49.5 -123t120.5 -45q186 0 210 265l290 -40q-34 -242 -176 -364.5t-346 -122.5q-209 0 -351.5 121t-142.5 306zM413 765v320h331v-320h-331z" />
<glyph unicode="&#xc0;" horiz-adv-x="1319" d="M0 0l463 1447h393l453 -1447h-365l-88 298h-468l-91 -298h-297zM470 565h307l-154 508zM311 1768l81 178l438 -258l-53 -118z" />
<glyph unicode="&#xc1;" horiz-adv-x="1319" d="M0 0l463 1447h393l453 -1447h-365l-88 298h-468l-91 -298h-297zM470 565h307l-154 508zM489 1688l439 258l80 -178l-466 -198z" />
<glyph unicode="&#xc2;" horiz-adv-x="1319" d="M0 0l463 1447h393l453 -1447h-365l-88 298h-468l-91 -298h-297zM470 565h307l-154 508zM269 1598l388 333l389 -333l-215 -22l-174 146l-174 -146z" />
<glyph unicode="&#xc3;" horiz-adv-x="1319" d="M0 0l463 1447h393l453 -1447h-365l-88 298h-468l-91 -298h-297zM470 565h307l-154 508zM298 1732q106 116 225 116q68 0 157 -42q64 -31 96 -31q74 0 150 88l89 -118q-104 -137 -235 -137q-64 0 -170 50q-52 23 -85 23q-65 0 -136 -68z" />
<glyph unicode="&#xc4;" horiz-adv-x="1319" d="M0 0l463 1447h393l453 -1447h-365l-88 298h-468l-91 -298h-297zM470 565h307l-154 508zM331 1689q0 49 35 86.5t91 37.5q49 0 88.5 -32t39.5 -91q0 -56 -37.5 -89.5t-90.5 -33.5q-58 0 -92 37.5t-34 84.5zM686 1689q0 49 35.5 86.5t90.5 37.5q51 0 89 -32.5t38 -90.5 q0 -56 -37.5 -89.5t-90.5 -33.5q-58 0 -91.5 37.5t-33.5 84.5z" />
<glyph unicode="&#xc5;" horiz-adv-x="1319" d="M0 0l463 1447h393l453 -1447h-365l-88 298h-468l-91 -298h-297zM470 565h307l-154 508zM453 1735q0 77 57 138.5t145 61.5t147 -58.5t59 -138.5q0 -82 -59.5 -142t-147.5 -60q-87 0 -144 62t-57 137zM572 1735q0 -32 25 -56t60 -24t60.5 24t25.5 56q0 33 -25 57t-60 24 q-37 0 -61.5 -24.5t-24.5 -56.5z" />
<glyph unicode="&#xc6;" horiz-adv-x="1829" d="M-15 0l663 1447h1123v-274h-663v-296h530v-272h-530v-319h663v-286h-1003v334h-338l-152 -334h-293zM531 576h237v521z" />
<glyph unicode="&#xc7;" horiz-adv-x="1362" d="M76 724q0 328 174 536.5t475 208.5q522 0 587 -561l-355 -22q-7 306 -238 306q-265 0 -265 -471q0 -273 72 -370t201 -97q210 0 257 274l328 -20q-75 -516 -596 -530l-29 -87q34 5 58 5q83 0 142 -50.5t59 -126.5q0 -89 -71.5 -140t-166.5 -51q-140 0 -265 72l37 90 q108 -50 169 -50q47 0 74 23t27 57q0 40 -34.5 63.5t-89.5 23.5q-26 0 -83 -9l57 190q-252 49 -388 244t-136 492z" />
<glyph unicode="&#xc8;" horiz-adv-x="1237" d="M144 0v1447h1035v-276h-690v-297h542v-272h-542v-316h690v-286h-1035zM315 1768l81 178l438 -258l-53 -118z" />
<glyph unicode="&#xc9;" horiz-adv-x="1237" d="M144 0v1447h1035v-276h-690v-297h542v-272h-542v-316h690v-286h-1035zM493 1684l439 258l80 -178l-466 -198z" />
<glyph unicode="&#xca;" horiz-adv-x="1237" d="M144 0v1447h1035v-276h-690v-297h542v-272h-542v-316h690v-286h-1035zM269 1598l388 333l389 -333l-215 -22l-174 146l-174 -146z" />
<glyph unicode="&#xcb;" horiz-adv-x="1237" d="M144 0v1447h1035v-276h-690v-297h542v-272h-542v-316h690v-286h-1035zM357 1727q0 49 35 86.5t91 37.5q49 0 88.5 -32t39.5 -91q0 -56 -37.5 -89.5t-90.5 -33.5q-58 0 -92 37.5t-34 84.5zM712 1727q0 49 35.5 86.5t90.5 37.5q51 0 89 -32.5t38 -90.5q0 -56 -37.5 -89.5 t-90.5 -33.5q-58 0 -91.5 37.5t-33.5 84.5z" />
<glyph unicode="&#xcc;" horiz-adv-x="628" d="M145 0v1447h338v-1447h-338zM-26 1768l81 178l438 -258l-53 -118z" />
<glyph unicode="&#xcd;" horiz-adv-x="628" d="M145 0v1447h338v-1447h-338zM139 1688l439 258l80 -178l-466 -198z" />
<glyph unicode="&#xce;" horiz-adv-x="627" d="M145 0v1447h338v-1447h-338zM-76 1602l388 333l389 -333l-215 -22l-174 146l-174 -146z" />
<glyph unicode="&#xcf;" horiz-adv-x="628" d="M144 0v1447h338v-1447h-338zM20 1724q0 49 35 86.5t91 37.5q49 0 88.5 -32t39.5 -91q0 -56 -37.5 -89.5t-90.5 -33.5q-58 0 -92 37.5t-34 84.5zM375 1724q0 49 35.5 86.5t90.5 37.5q51 0 89 -32.5t38 -90.5q0 -56 -37.5 -89.5t-90.5 -33.5q-58 0 -91.5 37.5t-33.5 84.5z " />
<glyph unicode="&#xd0;" horiz-adv-x="1407" d="M15 634v217h130v596h441q270 0 402.5 -74.5t237.5 -236t105 -409.5q0 -309 -182 -518t-507 -209h-497v634h-130zM478 272h139q186 0 276 139t90 325q0 166 -84.5 305.5t-278.5 139.5h-142v-330h252v-217h-252v-362z" />
<glyph unicode="&#xd1;" horiz-adv-x="1403" d="M145 0v1447h366l493 -853q-7 63 -7 96v757h262v-1447h-289l-567 977q1 -37 2 -48q4 -38 4 -63v-866h-264zM362 1732q106 116 225 116q68 0 157 -42q64 -31 96 -31q74 0 150 88l89 -118q-104 -137 -235 -137q-64 0 -170 50q-52 23 -85 23q-65 0 -136 -68z" />
<glyph unicode="&#xd2;" horiz-adv-x="1387" d="M76 728q0 317 162.5 529t462.5 212q303 0 457 -226t154 -518q0 -315 -159 -531t-464 -216q-293 0 -453 219.5t-160 530.5zM431 724q0 -470 268 -470q258 0 258 469t-258 469q-268 0 -268 -468zM387 1764l81 178l438 -258l-53 -118z" />
<glyph unicode="&#xd3;" horiz-adv-x="1387" d="M76 728q0 317 162.5 529t462.5 212q303 0 457 -226t154 -518q0 -315 -159 -531t-464 -216q-293 0 -453 219.5t-160 530.5zM431 724q0 -470 268 -470q258 0 258 469t-258 469q-268 0 -268 -468zM527 1688l439 258l80 -178l-466 -198z" />
<glyph unicode="&#xd4;" horiz-adv-x="1387" d="M76 728q0 317 162.5 529t462.5 212q303 0 457 -226t154 -518q0 -315 -159 -531t-464 -216q-293 0 -453 219.5t-160 530.5zM431 724q0 -470 268 -470q258 0 258 469t-258 469q-268 0 -268 -468zM320 1598l388 333l389 -333l-215 -22l-174 146l-174 -146z" />
<glyph unicode="&#xd5;" horiz-adv-x="1387" d="M76 728q0 317 162.5 529t462.5 212q303 0 457 -226t154 -518q0 -315 -159 -531t-464 -216q-293 0 -453 219.5t-160 530.5zM431 724q0 -470 268 -470q258 0 258 469t-258 469q-268 0 -268 -468zM354 1732q106 116 225 116q68 0 157 -42q64 -31 96 -31q74 0 150 88l89 -118 q-104 -137 -235 -137q-64 0 -170 50q-52 23 -85 23q-65 0 -136 -68z" />
<glyph unicode="&#xd6;" horiz-adv-x="1387" d="M76 728q0 317 162.5 529t462.5 212q303 0 457 -226t154 -518q0 -315 -159 -531t-464 -216q-293 0 -453 219.5t-160 530.5zM431 724q0 -470 268 -470q258 0 258 469t-258 469q-268 0 -268 -468zM403 1723q0 49 35 86.5t91 37.5q49 0 88.5 -32t39.5 -91q0 -56 -37.5 -89.5 t-90.5 -33.5q-58 0 -92 37.5t-34 84.5zM758 1723q0 49 35.5 86.5t90.5 37.5q51 0 89 -32.5t38 -90.5q0 -56 -37.5 -89.5t-90.5 -33.5q-58 0 -91.5 37.5t-33.5 84.5z" />
<glyph unicode="&#xd7;" horiz-adv-x="1273" d="M165 1041l163 162l309 -308l298 297l164 -164l-299 -298l309 -307l-162 -163l-309 308l-298 -298l-163 164l297 297z" />
<glyph unicode="&#xd8;" horiz-adv-x="1387" d="M76 719q0 310 156 530t472 220q149 0 270 -58l90 154h193l-142 -263q197 -241 197 -579q0 -313 -159.5 -529t-475.5 -216q-147 0 -268 59l-86 -155h-192l146 266q-201 229 -201 571zM430 697q0 -126 31 -217l375 671q-59 41 -140 41q-154 0 -210 -144t-56 -351zM552 300 q52 -46 154 -46q251 0 251 465q0 145 -26 258z" />
<glyph unicode="&#xd9;" horiz-adv-x="1409" d="M130 546v901h368v-901q0 -117 19.5 -172t78.5 -87.5t145 -32.5q95 0 155 32t79.5 84.5t19.5 175.5v901h291v-901q0 -218 -50 -325t-184 -175t-343 -68t-332.5 61.5t-185 175t-61.5 331.5zM378 1764l81 178l438 -258l-53 -118z" />
<glyph unicode="&#xda;" horiz-adv-x="1409" d="M130 546v901h368v-901q0 -117 19.5 -172t78.5 -87.5t145 -32.5q95 0 155 32t79.5 84.5t19.5 175.5v901h291v-901q0 -218 -50 -325t-184 -175t-343 -68t-332.5 61.5t-185 175t-61.5 331.5zM552 1688l439 258l80 -178l-466 -198z" />
<glyph unicode="&#xdb;" horiz-adv-x="1409" d="M130 546v901h368v-901q0 -117 19.5 -172t78.5 -87.5t145 -32.5q95 0 155 32t79.5 84.5t19.5 175.5v901h291v-901q0 -218 -50 -325t-184 -175t-343 -68t-332.5 61.5t-185 175t-61.5 331.5zM337 1598l388 333l389 -333l-215 -22l-174 146l-174 -146z" />
<glyph unicode="&#xdc;" horiz-adv-x="1409" d="M130 546v901h368v-901q0 -117 19.5 -172t78.5 -87.5t145 -32.5q95 0 155 32t79.5 84.5t19.5 175.5v901h291v-901q0 -218 -50 -325t-184 -175t-343 -68t-332.5 61.5t-185 175t-61.5 331.5zM420 1727q0 49 35 86.5t91 37.5q49 0 88.5 -32t39.5 -91q0 -56 -37.5 -89.5 t-90.5 -33.5q-58 0 -92 37.5t-34 84.5zM775 1727q0 49 35.5 86.5t90.5 37.5q51 0 89 -32.5t38 -90.5q0 -56 -37.5 -89.5t-90.5 -33.5q-58 0 -91.5 37.5t-33.5 84.5z" />
<glyph unicode="&#xdd;" horiz-adv-x="1132" d="M-58 1447h393l277 -549l274 549h304l-454 -837v-610h-340v610zM408 1684l439 258l80 -178l-466 -198z" />
<glyph unicode="&#xde;" horiz-adv-x="1323" d="M144 0v1447h345v-195h225q191 0 292.5 -41.5t181 -146.5t79.5 -256t-68 -261.5t-172.5 -158t-299.5 -47.5h-238v-341h-345zM477 605h220q128 0 178 59t50 133t-48.5 133t-180.5 59h-219v-384z" />
<glyph unicode="&#xdf;" horiz-adv-x="1355" d="M28 753v237h110q0 279 162 427t419 148q201 0 321.5 -100.5t120.5 -235.5q0 -109 -78.5 -189.5t-179.5 -104.5q-108 -27 -123.5 -33t-15.5 -15q0 -13 116 -53q115 -41 175 -71.5t125.5 -91t95.5 -128.5t30 -147q0 -173 -137 -295.5t-367 -122.5q-117 0 -243 44l82 214 q117 -40 191 -40q80 0 128.5 39.5t48.5 95.5q0 62 -50.5 102.5t-210.5 109.5q-81 35 -123.5 64t-71.5 79.5t-29 112.5q0 126 117 240q202 45 202 160q0 61 -51 97t-117 36q-74 0 -124 -39.5t-67 -98.5t-17 -186v-1135h-329v880h-110z" />
<glyph unicode="&#xe0;" horiz-adv-x="1175" d="M66 279q0 100 54 185t173.5 133.5t436.5 71.5v61q0 156 -155 156q-167 0 -186 -156l-291 28q28 182 172 258.5t327 76.5q109 0 205.5 -25.5t150.5 -76.5t73 -107.5t19 -197.5v-486q0 -140 20 -200h-306q-15 64 -15 167q-80 -114 -160 -151.5t-182 -37.5 q-151 0 -243.5 81.5t-92.5 219.5zM399 313q0 -56 35 -97t99 -41q84 0 140.5 69.5t56.5 171.5v97q-331 -33 -331 -200zM255 1429l81 178l438 -258l-53 -118z" />
<glyph unicode="&#xe1;" horiz-adv-x="1175" d="M66 279q0 100 54 185t173.5 133.5t436.5 71.5v61q0 156 -155 156q-167 0 -186 -156l-291 28q28 182 172 258.5t327 76.5q109 0 205.5 -25.5t150.5 -76.5t73 -107.5t19 -197.5v-486q0 -140 20 -200h-306q-15 64 -15 167q-80 -114 -160 -151.5t-182 -37.5 q-151 0 -243.5 81.5t-92.5 219.5zM399 313q0 -56 35 -97t99 -41q84 0 140.5 69.5t56.5 171.5v97q-331 -33 -331 -200zM429 1349l439 258l80 -178l-466 -198z" />
<glyph unicode="&#xe2;" horiz-adv-x="1175" d="M66 279q0 100 54 185t173.5 133.5t436.5 71.5v61q0 156 -155 156q-167 0 -186 -156l-291 28q28 182 172 258.5t327 76.5q109 0 205.5 -25.5t150.5 -76.5t73 -107.5t19 -197.5v-486q0 -140 20 -200h-306q-15 64 -15 167q-80 -114 -160 -151.5t-182 -37.5 q-151 0 -243.5 81.5t-92.5 219.5zM399 313q0 -56 35 -97t99 -41q84 0 140.5 69.5t56.5 171.5v97q-331 -33 -331 -200zM207 1259l388 333l389 -333l-215 -22l-174 146l-174 -146z" />
<glyph unicode="&#xe3;" horiz-adv-x="1175" d="M66 279q0 100 54 185t173.5 133.5t436.5 71.5v61q0 156 -155 156q-167 0 -186 -156l-291 28q28 182 172 258.5t327 76.5q109 0 205.5 -25.5t150.5 -76.5t73 -107.5t19 -197.5v-486q0 -140 20 -200h-306q-15 64 -15 167q-80 -114 -160 -151.5t-182 -37.5 q-151 0 -243.5 81.5t-92.5 219.5zM399 313q0 -56 35 -97t99 -41q84 0 140.5 69.5t56.5 171.5v97q-331 -33 -331 -200zM243 1384q106 116 225 116q68 0 157 -42q64 -31 96 -31q74 0 150 88l89 -118q-104 -137 -235 -137q-64 0 -170 50q-52 23 -85 23q-65 0 -136 -68z" />
<glyph unicode="&#xe4;" horiz-adv-x="1175" d="M66 279q0 100 54 185t173.5 133.5t436.5 71.5v61q0 156 -155 156q-167 0 -186 -156l-291 28q28 182 172 258.5t327 76.5q109 0 205.5 -25.5t150.5 -76.5t73 -107.5t19 -197.5v-486q0 -140 20 -200h-306q-15 64 -15 167q-80 -114 -160 -151.5t-182 -37.5 q-151 0 -243.5 81.5t-92.5 219.5zM399 313q0 -56 35 -97t99 -41q84 0 140.5 69.5t56.5 171.5v97q-331 -33 -331 -200zM290 1384q0 49 35 86.5t91 37.5q49 0 88.5 -32t39.5 -91q0 -56 -37.5 -89.5t-90.5 -33.5q-58 0 -92 37.5t-34 84.5zM645 1384q0 49 35.5 86.5t90.5 37.5 q51 0 89 -32.5t38 -90.5q0 -56 -37.5 -89.5t-90.5 -33.5q-58 0 -91.5 37.5t-33.5 84.5z" />
<glyph unicode="&#xe5;" horiz-adv-x="1175" d="M66 279q0 100 54 185t173.5 133.5t436.5 71.5v61q0 156 -155 156q-167 0 -186 -156l-291 28q28 182 172 258.5t327 76.5q109 0 205.5 -25.5t150.5 -76.5t73 -107.5t19 -197.5v-486q0 -140 20 -200h-306q-15 64 -15 167q-80 -114 -160 -151.5t-182 -37.5 q-151 0 -243.5 81.5t-92.5 219.5zM399 313q0 -56 35 -97t99 -41q84 0 140.5 69.5t56.5 171.5v97q-331 -33 -331 -200zM391 1404q0 77 57 138.5t145 61.5t147 -58.5t59 -138.5q0 -82 -59.5 -142t-147.5 -60q-87 0 -144 62t-57 137zM510 1404q0 -32 25 -56t60 -24t60.5 24 t25.5 56q0 33 -25 57t-60 24q-37 0 -61.5 -24.5t-24.5 -56.5z" />
<glyph unicode="&#xe6;" horiz-adv-x="1737" d="M65 277q0 158 118 260t539 132v83q0 134 -156 134q-162 0 -180 -161l-286 27q26 181 168 261t314 80q186 0 314 -99q127 99 290 99q200 0 341 -137t141 -474h-662q0 -167 57 -222.5t139 -55.5q156 0 189 165l277 -23q-97 -368 -472 -368q-257 0 -407 192 q-152 -192 -397 -192q-150 0 -238.5 86.5t-88.5 212.5zM389 314q0 -55 36 -96t97 -41q82 0 141 67t59 167v101q-333 -17 -333 -198zM1007 669h369q-11 125 -54 171t-122 46q-168 0 -193 -217z" />
<glyph unicode="&#xe7;" horiz-adv-x="1110" d="M69 529q0 251 145.5 407.5t389.5 156.5q196 0 325 -117.5t143 -294.5l-295 -17q-15 192 -167 192q-188 0 -188 -307q0 -205 52.5 -260t127.5 -55q146 0 175 186l295 -18q-52 -396 -470 -423l-30 -85q21 3 31 3q81 0 133.5 -46.5t52.5 -113.5q0 -79 -59 -127t-158 -48 q-110 0 -220 63l35 91q88 -49 144 -49q76 0 76 69q0 37 -33 57t-80 20q-20 0 -56 -4l61 174q-191 24 -310.5 170.5t-119.5 375.5z" />
<glyph unicode="&#xe8;" horiz-adv-x="1160" d="M69 524q0 255 145.5 412t374.5 157q207 0 355 -146t148 -465h-689q-1 -28 -1 -50q0 -114 61 -172.5t145 -58.5q158 0 190 169l286 -21q-119 -371 -486 -371q-160 0 -272 64t-184.5 187t-72.5 295zM402 666h380q-15 220 -181 220q-178 0 -199 -220zM278 1429l81 178 l438 -258l-53 -118z" />
<glyph unicode="&#xe9;" horiz-adv-x="1160" d="M69 524q0 255 145.5 412t374.5 157q207 0 355 -146t148 -465h-689q-1 -28 -1 -50q0 -114 61 -172.5t145 -58.5q158 0 190 169l286 -21q-119 -371 -486 -371q-160 0 -272 64t-184.5 187t-72.5 295zM402 666h380q-15 220 -181 220q-178 0 -199 -220zM429 1349l439 258 l80 -178l-466 -198z" />
<glyph unicode="&#xea;" horiz-adv-x="1160" d="M69 524q0 255 145.5 412t374.5 157q207 0 355 -146t148 -465h-689q-1 -28 -1 -50q0 -114 61 -172.5t145 -58.5q158 0 190 169l286 -21q-119 -371 -486 -371q-160 0 -272 64t-184.5 187t-72.5 295zM402 666h380q-15 220 -181 220q-178 0 -199 -220zM221 1259l388 333 l389 -333l-215 -22l-174 146l-174 -146z" />
<glyph unicode="&#xeb;" horiz-adv-x="1160" d="M69 524q0 255 145.5 412t374.5 157q207 0 355 -146t148 -465h-689q-1 -28 -1 -50q0 -114 61 -172.5t145 -58.5q158 0 190 169l286 -21q-119 -371 -486 -371q-160 0 -272 64t-184.5 187t-72.5 295zM402 666h380q-15 220 -181 220q-178 0 -199 -220zM305 1384q0 49 35 86.5 t91 37.5q49 0 88.5 -32t39.5 -91q0 -56 -37.5 -89.5t-90.5 -33.5q-58 0 -92 37.5t-34 84.5zM660 1384q0 49 35.5 86.5t90.5 37.5q51 0 89 -32.5t38 -90.5q0 -56 -37.5 -89.5t-90.5 -33.5q-58 0 -91.5 37.5t-33.5 84.5z" />
<glyph unicode="&#xec;" horiz-adv-x="575" d="M130 0v1071h316v-1071h-316zM-35 1429l81 178l438 -258l-53 -118z" />
<glyph unicode="&#xed;" horiz-adv-x="575" d="M130 0v1071h316v-1071h-316zM96 1349l439 258l80 -178l-466 -198z" />
<glyph unicode="&#xee;" horiz-adv-x="575" d="M130 0v1071h316v-1071h-316zM-97 1259l388 333l389 -333l-215 -22l-174 146l-174 -146z" />
<glyph unicode="&#xef;" horiz-adv-x="575" d="M133 0v1071h316v-1071h-316zM8 1385q0 49 35 86.5t91 37.5q49 0 88.5 -32t39.5 -91q0 -56 -37.5 -89.5t-90.5 -33.5q-58 0 -92 37.5t-34 84.5zM363 1385q0 49 35.5 86.5t90.5 37.5q51 0 89 -32.5t38 -90.5q0 -56 -37.5 -89.5t-90.5 -33.5q-58 0 -91.5 37.5t-33.5 84.5z " />
<glyph unicode="&#xf0;" horiz-adv-x="1161" d="M69 523q0 226 139.5 385.5t324.5 159.5q126 0 208 -113q-36 193 -134 287l-191 -95l-68 97l170 89q-56 38 -186 80l51 116q166 -34 300 -116l196 96l79 -93l-171 -87q116 -105 212 -306t96 -426q0 -312 -143.5 -465.5t-365.5 -153.5q-246 0 -381.5 161t-135.5 384z M403 547q0 -226 52.5 -293.5t131.5 -67.5q74 0 123 66t49 281q0 329 -172 329q-184 0 -184 -315z" />
<glyph unicode="&#xf1;" horiz-adv-x="1191" d="M130 0v1071h294v-182q73 130 144 167t154 37q152 0 245.5 -82t93.5 -323v-688h-316v601q0 109 -8.5 149.5t-41.5 68.5t-82 28q-167 0 -167 -246v-601h-316zM222 1384q106 116 225 116q68 0 157 -42q64 -31 96 -31q74 0 150 88l89 -118q-104 -137 -235 -137q-64 0 -170 50 q-52 23 -85 23q-65 0 -136 -68z" />
<glyph unicode="&#xf2;" horiz-adv-x="1161" d="M69 537q0 171 62 290.5t170 192.5t274 73q244 0 381.5 -160t137.5 -401q0 -237 -142.5 -395.5t-379.5 -158.5q-229 0 -366 157t-137 402zM402 541q0 -190 43.5 -272.5t135.5 -82.5q80 0 130 70t50 269q0 211 -44 286t-134 75t-135.5 -69.5t-45.5 -275.5zM264 1429l81 178 l438 -258l-53 -118z" />
<glyph unicode="&#xf3;" horiz-adv-x="1161" d="M69 537q0 171 62 290.5t170 192.5t274 73q244 0 381.5 -160t137.5 -401q0 -237 -142.5 -395.5t-379.5 -158.5q-229 0 -366 157t-137 402zM402 541q0 -190 43.5 -272.5t135.5 -82.5q80 0 130 70t50 269q0 211 -44 286t-134 75t-135.5 -69.5t-45.5 -275.5zM408 1349 l439 258l80 -178l-466 -198z" />
<glyph unicode="&#xf4;" horiz-adv-x="1161" d="M69 537q0 171 62 290.5t170 192.5t274 73q244 0 381.5 -160t137.5 -401q0 -237 -142.5 -395.5t-379.5 -158.5q-229 0 -366 157t-137 402zM402 541q0 -190 43.5 -272.5t135.5 -82.5q80 0 130 70t50 269q0 211 -44 286t-134 75t-135.5 -69.5t-45.5 -275.5zM201 1259 l388 333l389 -333l-215 -22l-174 146l-174 -146z" />
<glyph unicode="&#xf5;" horiz-adv-x="1161" d="M69 537q0 171 62 290.5t170 192.5t274 73q244 0 381.5 -160t137.5 -401q0 -237 -142.5 -395.5t-379.5 -158.5q-229 0 -366 157t-137 402zM402 541q0 -190 43.5 -272.5t135.5 -82.5q80 0 130 70t50 269q0 211 -44 286t-134 75t-135.5 -69.5t-45.5 -275.5zM237 1384 q106 116 225 116q68 0 157 -42q64 -31 96 -31q74 0 150 88l89 -118q-104 -137 -235 -137q-64 0 -170 50q-52 23 -85 23q-65 0 -136 -68z" />
<glyph unicode="&#xf6;" horiz-adv-x="1161" d="M69 537q0 171 62 290.5t170 192.5t274 73q244 0 381.5 -160t137.5 -401q0 -237 -142.5 -395.5t-379.5 -158.5q-229 0 -366 157t-137 402zM402 541q0 -190 43.5 -272.5t135.5 -82.5q80 0 130 70t50 269q0 211 -44 286t-134 75t-135.5 -69.5t-45.5 -275.5zM284 1384 q0 49 35 86.5t91 37.5q49 0 88.5 -32t39.5 -91q0 -56 -37.5 -89.5t-90.5 -33.5q-58 0 -92 37.5t-34 84.5zM639 1384q0 49 35.5 86.5t90.5 37.5q51 0 89 -32.5t38 -90.5q0 -56 -37.5 -89.5t-90.5 -33.5q-58 0 -91.5 37.5t-33.5 84.5z" />
<glyph unicode="&#xf7;" horiz-adv-x="1273" d="M101 615v232h1072v-232h-1072zM491 354q0 59 42.5 101.5t102.5 42.5q59 0 101.5 -42.5t42.5 -101.5q0 -60 -43 -102.5t-102 -42.5t-101.5 42.5t-42.5 102.5zM491 1105q0 59 42.5 102t102.5 43q59 0 101.5 -42.5t42.5 -102.5t-43 -102.5t-102 -42.5t-101.5 42.5 t-42.5 102.5z" />
<glyph unicode="&#xf8;" horiz-adv-x="1161" d="M69 532q0 233 129.5 397t377.5 164q135 0 211 -38l75 127h170l-115 -210q177 -159 177 -440q0 -236 -141 -395t-374 -159q-94 0 -203 34l-78 -123h-172l117 210q-174 162 -174 433zM401 582q0 -80 10 -190l259 467q-23 27 -89 27q-88 0 -134 -67t-46 -237zM488 216 q42 -32 90 -32q181 0 181 332q0 94 -10 174z" />
<glyph unicode="&#xf9;" horiz-adv-x="1175" d="M130 371v700h307v-700q0 -144 118 -144q61 0 105.5 34.5t56.5 73.5t12 135v601h316v-1071h-292v182q-83 -204 -316 -204q-121 0 -185.5 45t-93 123t-28.5 225zM236 1429l81 178l438 -258l-53 -118z" />
<glyph unicode="&#xfa;" horiz-adv-x="1175" d="M130 371v700h307v-700q0 -144 118 -144q61 0 105.5 34.5t56.5 73.5t12 135v601h316v-1071h-292v182q-83 -204 -316 -204q-121 0 -185.5 45t-93 123t-28.5 225zM422 1349l439 258l80 -178l-466 -198z" />
<glyph unicode="&#xfb;" horiz-adv-x="1175" d="M130 371v700h307v-700q0 -144 118 -144q61 0 105.5 34.5t56.5 73.5t12 135v601h316v-1071h-292v182q-83 -204 -316 -204q-121 0 -185.5 45t-93 123t-28.5 225zM196 1259l388 333l389 -333l-215 -22l-174 146l-174 -146z" />
<glyph unicode="&#xfc;" horiz-adv-x="1175" d="M130 371v700h307v-700q0 -144 118 -144q61 0 105.5 34.5t56.5 73.5t12 135v601h316v-1071h-292v182q-83 -204 -316 -204q-121 0 -185.5 45t-93 123t-28.5 225zM280 1384q0 49 35 86.5t91 37.5q49 0 88.5 -32t39.5 -91q0 -56 -37.5 -89.5t-90.5 -33.5q-58 0 -92 37.5 t-34 84.5zM635 1384q0 49 35.5 86.5t90.5 37.5q51 0 89 -32.5t38 -90.5q0 -56 -37.5 -89.5t-90.5 -33.5q-58 0 -91.5 37.5t-33.5 84.5z" />
<glyph unicode="&#xfd;" horiz-adv-x="966" d="M-7 1071h333l206 -637l197 637h230l-335 -1028q-56 -171 -95.5 -248t-114.5 -123t-208 -46q-67 0 -152 13v242q84 -15 155 -15q93 0 125 35t48 99zM333 1349l439 258l80 -178l-466 -198z" />
<glyph unicode="&#xfe;" horiz-adv-x="1171" d="M130 -361v1808h307v-511q91 157 269 157q179 0 285.5 -145.5t106.5 -399.5q0 -283 -112 -426.5t-291 -143.5q-181 0 -258 141v-480h-307zM437 469q0 -114 13.5 -157.5t58 -78t96.5 -34.5q65 0 116 66.5t51 292.5q0 316 -168 316q-63 0 -115 -56t-52 -190v-159z" />
<glyph unicode="&#xff;" horiz-adv-x="966" d="M-7 1071h333l206 -637l197 637h230l-335 -1028q-56 -171 -95.5 -248t-114.5 -123t-208 -46q-67 0 -152 13v242q84 -15 155 -15q93 0 125 35t48 99zM188 1384q0 49 35 86.5t91 37.5q49 0 88.5 -32t39.5 -91q0 -56 -37.5 -89.5t-90.5 -33.5q-58 0 -92 37.5t-34 84.5z M543 1384q0 49 35.5 86.5t90.5 37.5q51 0 89 -32.5t38 -90.5q0 -56 -37.5 -89.5t-90.5 -33.5q-58 0 -91.5 37.5t-33.5 84.5z" />
<glyph unicode="&#x100;" horiz-adv-x="1319" d="M0 0l463 1447h393l453 -1447h-365l-88 298h-468l-91 -298h-297zM470 565h307l-154 508zM327 1642v151h651v-151h-651z" />
<glyph unicode="&#x101;" horiz-adv-x="1175" d="M66 279q0 100 54 185t173.5 133.5t436.5 71.5v61q0 156 -155 156q-167 0 -186 -156l-291 28q28 182 172 258.5t327 76.5q109 0 205.5 -25.5t150.5 -76.5t73 -107.5t19 -197.5v-486q0 -140 20 -200h-306q-15 64 -15 167q-80 -114 -160 -151.5t-182 -37.5 q-151 0 -243.5 81.5t-92.5 219.5zM399 313q0 -56 35 -97t99 -41q84 0 140.5 69.5t56.5 171.5v97q-331 -33 -331 -200zM269 1303v151h651v-151h-651z" />
<glyph unicode="&#x102;" horiz-adv-x="1319" d="M0 0l463 1447h393l453 -1447h-365l-88 298h-468l-91 -298h-297zM470 565h307l-154 508zM319 1882h166q17 -139 170 -139q156 0 172 139h167q-18 -143 -108.5 -223.5t-234.5 -80.5q-134 0 -227 74.5t-105 229.5z" />
<glyph unicode="&#x103;" horiz-adv-x="1175" d="M66 279q0 100 54 185t173.5 133.5t436.5 71.5v61q0 156 -155 156q-167 0 -186 -156l-291 28q28 182 172 258.5t327 76.5q109 0 205.5 -25.5t150.5 -76.5t73 -107.5t19 -197.5v-486q0 -140 20 -200h-306q-15 64 -15 167q-80 -114 -160 -151.5t-182 -37.5 q-151 0 -243.5 81.5t-92.5 219.5zM399 313q0 -56 35 -97t99 -41q84 0 140.5 69.5t56.5 171.5v97q-331 -33 -331 -200zM264 1556h166q17 -139 170 -139q156 0 172 139h167q-18 -143 -108.5 -223.5t-234.5 -80.5q-134 0 -227 74.5t-105 229.5z" />
<glyph unicode="&#x104;" horiz-adv-x="1319" d="M0 0l463 1447h393l453 -1447q-148 -73 -148 -179q0 -98 126 -98q42 0 93 20l21 -95q-89 -41 -188 -41q-118 0 -185.5 48.5t-67.5 132.5q0 138 195 212h-211l-88 298h-468l-91 -298h-297zM470 565h307l-154 508z" />
<glyph unicode="&#x105;" horiz-adv-x="1175" d="M65 279q0 100 54 185t173.5 133.5t436.5 71.5v61q0 156 -156 156q-166 0 -185 -156l-292 28q29 182 173 258.5t327 76.5q109 0 205.5 -25.5t150.5 -76.5t73 -107.5t19 -197.5v-486q0 -137 20 -200q-145 -84 -145 -169q0 -44 32 -71t87 -27q25 0 83 20l23 -87 q-78 -38 -184 -38q-105 0 -166.5 46t-61.5 121q0 128 187 205h-161q-15 64 -15 167q-81 -114 -161 -151.5t-181 -37.5q-151 0 -243.5 81.5t-92.5 219.5zM398 313q0 -56 34.5 -97t99.5 -41q84 0 140.5 69.5t56.5 171.5v97q-331 -33 -331 -200z" />
<glyph unicode="&#x106;" horiz-adv-x="1362" d="M76 724q0 328 174 536.5t475 208.5q522 0 587 -561l-355 -22q-7 306 -238 306q-265 0 -265 -471q0 -273 72 -370t201 -97q210 0 257 274l328 -20q-32 -260 -193.5 -395t-395.5 -135q-287 0 -467 198t-180 548zM561 1684l439 258l80 -178l-466 -198z" />
<glyph unicode="&#x107;" horiz-adv-x="1110" d="M69 529q0 251 145.5 407.5t389.5 156.5q196 0 325 -117.5t143 -294.5l-295 -17q-15 192 -167 192q-188 0 -188 -307q0 -205 52.5 -260t127.5 -55q146 0 175 186l295 -18q-18 -190 -150 -307t-341 -117q-227 0 -369.5 150t-142.5 401zM426 1349l439 258l80 -178l-466 -198 z" />
<glyph unicode="&#x108;" horiz-adv-x="1362" d="M76 724q0 328 174 536.5t475 208.5q522 0 587 -561l-355 -22q-7 306 -238 306q-265 0 -265 -471q0 -273 72 -370t201 -97q210 0 257 274l328 -20q-32 -260 -193.5 -395t-395.5 -135q-287 0 -467 198t-180 548zM346 1598l388 333l389 -333l-215 -22l-174 146l-174 -146z " />
<glyph unicode="&#x109;" horiz-adv-x="1110" d="M69 529q0 251 145.5 407.5t389.5 156.5q196 0 325 -117.5t143 -294.5l-295 -17q-15 192 -167 192q-188 0 -188 -307q0 -205 52.5 -260t127.5 -55q146 0 175 186l295 -18q-18 -190 -150 -307t-341 -117q-227 0 -369.5 150t-142.5 401zM211 1259l388 333l389 -333l-215 -22 l-174 146l-174 -146z" />
<glyph unicode="&#x10a;" horiz-adv-x="1362" d="M76 724q0 328 174 536.5t475 208.5q522 0 587 -561l-355 -22q-7 306 -238 306q-265 0 -265 -471q0 -273 72 -370t201 -97q210 0 257 274l328 -20q-32 -260 -193.5 -395t-395.5 -135q-287 0 -467 198t-180 548zM611 1723q0 49 34.5 86.5t90.5 37.5q49 0 88.5 -32t39.5 -91 q0 -56 -37.5 -89.5t-90.5 -33.5q-58 0 -91.5 37.5t-33.5 84.5z" />
<glyph unicode="&#x10b;" horiz-adv-x="1110" d="M69 529q0 251 145.5 407.5t389.5 156.5q196 0 325 -117.5t143 -294.5l-295 -17q-15 192 -167 192q-188 0 -188 -307q0 -205 52.5 -260t127.5 -55q146 0 175 186l295 -18q-18 -190 -150 -307t-341 -117q-227 0 -369.5 150t-142.5 401zM473 1384q0 49 34.5 86.5t90.5 37.5 q49 0 88.5 -32t39.5 -91q0 -56 -37.5 -89.5t-90.5 -33.5q-58 0 -91.5 37.5t-33.5 84.5z" />
<glyph unicode="&#x10c;" horiz-adv-x="1362" d="M76 724q0 328 174 536.5t475 208.5q522 0 587 -561l-355 -22q-7 306 -238 306q-265 0 -265 -471q0 -273 72 -370t201 -97q210 0 257 274l328 -20q-32 -260 -193.5 -395t-395.5 -135q-287 0 -467 198t-180 548zM354 1895l214 21l175 -145l173 145l215 -21l-388 -333z" />
<glyph unicode="&#x10d;" horiz-adv-x="1110" d="M69 529q0 251 145.5 407.5t389.5 156.5q196 0 325 -117.5t143 -294.5l-295 -17q-15 192 -167 192q-188 0 -188 -307q0 -205 52.5 -260t127.5 -55q146 0 175 186l295 -18q-18 -190 -150 -307t-341 -117q-227 0 -369.5 150t-142.5 401zM211 1556l214 21l175 -145l173 145 l215 -21l-388 -333z" />
<glyph unicode="&#x10e;" horiz-adv-x="1407" d="M145 0v1447h442q271 0 403.5 -75t237 -236.5t104.5 -408.5q0 -310 -183 -518.5t-506 -208.5h-498zM478 272h140q185 0 275.5 138.5t90.5 325.5q0 131 -51.5 243t-128 157t-183.5 45h-143v-909zM257 1899l214 21l175 -145l173 145l215 -21l-388 -333z" />
<glyph unicode="&#x10f;" horiz-adv-x="1417" d="M72 524q0 267 102.5 418t296.5 151q170 0 263 -135v489h306v-1447h-292v167q-108 -189 -294 -189q-177 0 -279.5 144.5t-102.5 401.5zM399 518q0 -317 170 -317q66 0 115.5 57.5t49.5 163.5v200q0 252 -153 252q-182 0 -182 -356zM1126 1020l59 427h247l-194 -427h-112z " />
<glyph unicode="&#x110;" horiz-adv-x="1407" d="M15 634v217h130v596h441q270 0 402.5 -74.5t237.5 -236t105 -409.5q0 -309 -182 -518t-507 -209h-497v634h-130zM478 272h139q186 0 276 139t90 325q0 166 -84.5 305.5t-278.5 139.5h-142v-330h252v-217h-252v-362z" />
<glyph unicode="&#x111;" horiz-adv-x="1171" d="M72 523q0 279 104.5 420.5t290.5 141.5q188 0 267 -141v233h-269v143h269v127h306v-127h123v-143h-123v-1177h-292v167q-108 -189 -294 -189q-178 0 -280 144.5t-102 400.5zM399 518q0 -317 170 -317q66 0 115.5 57.5t49.5 163.5v200q0 252 -153 252q-182 0 -182 -356z " />
<glyph unicode="&#x112;" horiz-adv-x="1237" d="M144 0v1447h1035v-276h-690v-297h542v-272h-542v-316h690v-286h-1035zM331 1642v151h651v-151h-651z" />
<glyph unicode="&#x113;" horiz-adv-x="1160" d="M69 524q0 255 145.5 412t374.5 157q207 0 355 -146t148 -465h-689q-1 -28 -1 -50q0 -114 61 -172.5t145 -58.5q158 0 190 169l286 -21q-119 -371 -486 -371q-160 0 -272 64t-184.5 187t-72.5 295zM402 666h380q-15 220 -181 220q-178 0 -199 -220zM284 1303v151h651v-151 h-651z" />
<glyph unicode="&#x114;" horiz-adv-x="1237" d="M144 0v1447h1035v-276h-690v-297h542v-272h-542v-316h690v-286h-1035zM324 1882h166q17 -139 170 -139q156 0 172 139h167q-18 -143 -108.5 -223.5t-234.5 -80.5q-134 0 -227 74.5t-105 229.5z" />
<glyph unicode="&#x115;" horiz-adv-x="1160" d="M69 524q0 255 145.5 412t374.5 157q207 0 355 -146t148 -465h-689q-1 -28 -1 -50q0 -114 61 -172.5t145 -58.5q158 0 190 169l286 -21q-119 -371 -486 -371q-160 0 -272 64t-184.5 187t-72.5 295zM402 666h380q-15 220 -181 220q-178 0 -199 -220zM276 1556h166 q17 -139 170 -139q156 0 172 139h167q-18 -143 -108.5 -223.5t-234.5 -80.5q-134 0 -227 74.5t-105 229.5z" />
<glyph unicode="&#x116;" horiz-adv-x="1237" d="M144 0v1447h1035v-276h-690v-297h542v-272h-542v-316h690v-286h-1035zM535 1723q0 49 34.5 86.5t90.5 37.5q49 0 88.5 -32t39.5 -91q0 -56 -37.5 -89.5t-90.5 -33.5q-58 0 -91.5 37.5t-33.5 84.5z" />
<glyph unicode="&#x117;" horiz-adv-x="1160" d="M69 524q0 255 145.5 412t374.5 157q207 0 355 -146t148 -465h-689q-1 -28 -1 -50q0 -114 61 -172.5t145 -58.5q158 0 190 169l286 -21q-119 -371 -486 -371q-160 0 -272 64t-184.5 187t-72.5 295zM402 666h380q-15 220 -181 220q-178 0 -199 -220zM475 1384 q0 49 34.5 86.5t90.5 37.5q49 0 88.5 -32t39.5 -91q0 -56 -37.5 -89.5t-90.5 -33.5q-58 0 -91.5 37.5t-33.5 84.5z" />
<glyph unicode="&#x118;" horiz-adv-x="1237" d="M144 0v1447h1035v-276h-690v-297h542v-272h-542v-316h690v-286q-149 -73 -149 -179q0 -98 128 -98q42 0 92 20l22 -95q-90 -41 -189 -41q-117 0 -184.5 48.5t-67.5 132.5q0 138 195 212h-882z" />
<glyph unicode="&#x119;" horiz-adv-x="1160" d="M69 524q0 255 145.5 412t374.5 157q207 0 355 -146t148 -465h-689q-1 -28 -1 -50q0 -114 61 -172.5t145 -58.5q158 0 190 169l286 -21q-44 -157 -178 -282q-142 -132 -142 -228q0 -99 120 -99q23 0 83 20l21 -86q-75 -39 -183 -39t-167.5 47t-59.5 121q0 51 26.5 90.5 t125.5 98.5q-71 -14 -132 -14q-244 0 -386.5 155t-142.5 391zM402 666h380q-15 220 -181 220q-178 0 -199 -220z" />
<glyph unicode="&#x11a;" horiz-adv-x="1237" d="M144 0v1447h1035v-276h-690v-297h542v-272h-542v-316h690v-286h-1035zM274 1895l214 21l175 -145l173 145l215 -21l-388 -333z" />
<glyph unicode="&#x11b;" horiz-adv-x="1160" d="M69 524q0 255 145.5 412t374.5 157q207 0 355 -146t148 -465h-689q-1 -28 -1 -50q0 -114 61 -172.5t145 -58.5q158 0 190 169l286 -21q-119 -371 -486 -371q-160 0 -272 64t-184.5 187t-72.5 295zM402 666h380q-15 220 -181 220q-178 0 -199 -220zM221 1556l214 21 l175 -145l173 145l215 -21l-388 -333z" />
<glyph unicode="&#x11c;" horiz-adv-x="1393" d="M76 704q0 345 168 555t457 210q241 0 389.5 -135.5t181.5 -361.5l-322 -42q-39 262 -249 262q-138 0 -208.5 -124.5t-70.5 -355.5q0 -222 76.5 -340t217.5 -118q91 0 162.5 59.5t71.5 190.5h-273v270h595v-774h-155q-17 82 -49 166q-154 -188 -394 -188 q-283 0 -440.5 202.5t-157.5 523.5zM337 1598l388 333l389 -333l-215 -22l-174 146l-174 -146z" />
<glyph unicode="&#x11d;" horiz-adv-x="1200" d="M22 -128q0 143 184 193q-136 67 -136 190q0 154 214 240q-190 78 -190 262q0 149 131 242.5t362 93.5q147 0 283 -47q10 91 54 150t187 59q47 0 89 -8v-201q-50 11 -84 11q-105 0 -123 -93q86 -91 86 -204q0 -152 -126.5 -242t-365.5 -90q-85 0 -165 16q-54 -32 -54 -81 q0 -56 45.5 -74t219.5 -26q247 -13 340 -31t157 -87t64 -171q0 -148 -136.5 -249.5t-482.5 -101.5q-326 0 -439.5 70.5t-113.5 178.5zM297 -80q0 -72 92 -90t216 -18q162 0 227.5 24.5t65.5 78.5q0 42 -54.5 64t-291.5 22l-63 -1q-59 0 -79 3q-22 4 -36 4q-19 0 -48 -25 t-29 -62zM411 762q0 -163 175 -163q85 0 133 47.5t48 115.5q0 64 -45.5 112t-136.5 48q-81 0 -127.5 -44t-46.5 -116zM180 1280l388 333l389 -333l-215 -22l-174 146l-174 -146z" />
<glyph unicode="&#x11e;" horiz-adv-x="1393" d="M76 704q0 345 168 555t457 210q241 0 389.5 -135.5t181.5 -361.5l-322 -42q-39 262 -249 262q-138 0 -208.5 -124.5t-70.5 -355.5q0 -222 76.5 -340t217.5 -118q91 0 162.5 59.5t71.5 190.5h-273v270h595v-774h-155q-17 82 -49 166q-154 -188 -394 -188 q-283 0 -440.5 202.5t-157.5 523.5zM387 1882h166q17 -139 170 -139q156 0 172 139h167q-18 -143 -108.5 -223.5t-234.5 -80.5q-134 0 -227 74.5t-105 229.5z" />
<glyph unicode="&#x11f;" horiz-adv-x="1200" d="M22 -128q0 143 184 193q-136 67 -136 190q0 154 214 240q-190 78 -190 262q0 149 131 242.5t362 93.5q147 0 283 -47q10 91 54 150t187 59q47 0 89 -8v-201q-50 11 -84 11q-105 0 -123 -93q86 -91 86 -204q0 -152 -126.5 -242t-365.5 -90q-85 0 -165 16q-54 -32 -54 -81 q0 -56 45.5 -74t219.5 -26q247 -13 340 -31t157 -87t64 -171q0 -148 -136.5 -249.5t-482.5 -101.5q-326 0 -439.5 70.5t-113.5 178.5zM297 -80q0 -72 92 -90t216 -18q162 0 227.5 24.5t65.5 78.5q0 42 -54.5 64t-291.5 22l-63 -1q-59 0 -79 3q-22 4 -36 4q-19 0 -48 -25 t-29 -62zM411 762q0 -163 175 -163q85 0 133 47.5t48 115.5q0 64 -45.5 112t-136.5 48q-81 0 -127.5 -44t-46.5 -116zM264 1556h166q17 -139 170 -139q156 0 172 139h167q-18 -143 -108.5 -223.5t-234.5 -80.5q-134 0 -227 74.5t-105 229.5z" />
<glyph unicode="&#x120;" horiz-adv-x="1393" d="M76 704q0 345 168 555t457 210q241 0 389.5 -135.5t181.5 -361.5l-322 -42q-39 262 -249 262q-138 0 -208.5 -124.5t-70.5 -355.5q0 -222 76.5 -340t217.5 -118q91 0 162.5 59.5t71.5 190.5h-273v270h595v-774h-155q-17 82 -49 166q-154 -188 -394 -188 q-283 0 -440.5 202.5t-157.5 523.5zM590 1723q0 49 34.5 86.5t90.5 37.5q49 0 88.5 -32t39.5 -91q0 -56 -37.5 -89.5t-90.5 -33.5q-58 0 -91.5 37.5t-33.5 84.5z" />
<glyph unicode="&#x121;" horiz-adv-x="1200" d="M22 -128q0 143 184 193q-136 67 -136 190q0 154 214 240q-190 78 -190 262q0 149 131 242.5t362 93.5q147 0 283 -47q10 91 54 150t187 59q47 0 89 -8v-201q-50 11 -84 11q-105 0 -123 -93q86 -91 86 -204q0 -152 -126.5 -242t-365.5 -90q-85 0 -165 16q-54 -32 -54 -81 q0 -56 45.5 -74t219.5 -26q247 -13 340 -31t157 -87t64 -171q0 -148 -136.5 -249.5t-482.5 -101.5q-326 0 -439.5 70.5t-113.5 178.5zM297 -80q0 -72 92 -90t216 -18q162 0 227.5 24.5t65.5 78.5q0 42 -54.5 64t-291.5 22l-63 -1q-59 0 -79 3q-22 4 -36 4q-19 0 -48 -25 t-29 -62zM411 762q0 -163 175 -163q85 0 133 47.5t48 115.5q0 64 -45.5 112t-136.5 48q-81 0 -127.5 -44t-46.5 -116zM475 1384q0 49 34.5 86.5t90.5 37.5q49 0 88.5 -32t39.5 -91q0 -56 -37.5 -89.5t-90.5 -33.5q-58 0 -91.5 37.5t-33.5 84.5z" />
<glyph unicode="&#x122;" horiz-adv-x="1393" d="M76 704q0 345 168 555t457 210q241 0 389.5 -135.5t181.5 -361.5l-322 -42q-39 262 -249 262q-138 0 -208.5 -124.5t-70.5 -355.5q0 -222 76.5 -340t217.5 -118q91 0 162.5 59.5t71.5 190.5h-273v270h595v-774h-155q-17 82 -49 166q-154 -188 -394 -188 q-283 0 -440.5 202.5t-157.5 523.5zM529 -523l59 407h246l-193 -407h-112z" />
<glyph unicode="&#x123;" horiz-adv-x="1200" d="M22 -128q0 143 184 193q-136 67 -136 190q0 154 214 240q-190 78 -190 262q0 149 131 242.5t362 93.5q147 0 283 -47q10 91 54 150t187 59q47 0 89 -8v-201q-50 11 -84 11q-105 0 -123 -93q86 -91 86 -204q0 -152 -126.5 -242t-365.5 -90q-85 0 -165 16q-54 -32 -54 -81 q0 -56 45.5 -74t219.5 -26q247 -13 340 -31t157 -87t64 -171q0 -148 -136.5 -249.5t-482.5 -101.5q-326 0 -439.5 70.5t-113.5 178.5zM297 -80q0 -72 92 -90t216 -18q162 0 227.5 24.5t65.5 78.5q0 42 -54.5 64t-291.5 22l-63 -1q-59 0 -79 3q-22 4 -36 4q-19 0 -48 -25 t-29 -62zM411 762q0 -163 175 -163q85 0 133 47.5t48 115.5q0 64 -45.5 112t-136.5 48q-81 0 -127.5 -44t-46.5 -116zM773.055 1662.12l-58.9932 -426.948h-246.97l193.977 426.948h111.986z" />
<glyph unicode="&#x124;" horiz-adv-x="1407" d="M145 0v1447h333v-564h453v564h333v-1447h-333v597h-453v-597h-333zM316 1598l388 333l389 -333l-215 -22l-174 146l-174 -146z" />
<glyph unicode="&#x125;" horiz-adv-x="1180" d="M130 0v1447h307v-523q87 169 289 169q108 0 185 -47t108 -121.5t31 -217.5v-707h-314v603q0 108 -8.5 148.5t-39 67.5t-75.5 27q-60 0 -118 -46t-58 -197v-603h-307zM-89 1598l388 333l389 -333l-215 -22l-174 146l-174 -146z" />
<glyph unicode="&#x126;" horiz-adv-x="1407" d="M15 1063v217h130v167h333v-167h453v167h333v-167h130v-217h-130v-1063h-333v597h-453v-597h-333v1063h-130zM478 883h453v180h-453v-180z" />
<glyph unicode="&#x127;" horiz-adv-x="1180" d="M7 1177v143h123v127h307v-127h275v-143h-275v-268q83 176 295 176q110 0 183.5 -43t104 -118t30.5 -217v-707h-314v603q0 108 -8.5 148.5t-39 67.5t-75.5 27q-60 0 -118 -46t-58 -197v-603h-307v1177h-123z" />
<glyph unicode="&#x128;" horiz-adv-x="628" d="M145 0v1447h338v-1447h-338zM-43 1732q106 116 225 116q68 0 157 -42q64 -31 96 -31q74 0 150 88l89 -118q-104 -137 -235 -137q-64 0 -170 50q-52 23 -85 23q-65 0 -136 -68z" />
<glyph unicode="&#x129;" horiz-adv-x="575" d="M130 0v1071h316v-1071h-316zM-68 1384q106 116 225 116q68 0 157 -42q64 -31 96 -31q74 0 150 88l89 -118q-104 -137 -235 -137q-64 0 -170 50q-52 23 -85 23q-65 0 -136 -68z" />
<glyph unicode="&#x12a;" horiz-adv-x="628" d="M145 0v1447h338v-1447h-338zM3 1642v151h651v-151h-651z" />
<glyph unicode="&#x12b;" horiz-adv-x="575" d="M130 0v1071h316v-1071h-316zM-27 1303v151h651v-151h-651z" />
<glyph unicode="&#x12c;" horiz-adv-x="628" d="M145 0v1447h338v-1447h-338zM-30 1882h166q17 -139 170 -139q156 0 172 139h167q-18 -143 -108.5 -223.5t-234.5 -80.5q-134 0 -227 74.5t-105 229.5z" />
<glyph unicode="&#x12d;" horiz-adv-x="575" d="M130 0v1071h316v-1071h-316zM-47 1556h166q17 -139 170 -139q156 0 172 139h167q-18 -143 -108.5 -223.5t-234.5 -80.5q-134 0 -227 74.5t-105 229.5z" />
<glyph unicode="&#x12e;" horiz-adv-x="628" d="M145 0v1447h338v-1447q-133 -91 -133 -180q0 -44 31.5 -70.5t77.5 -26.5q29 0 82 20l22 -95q-92 -41 -168 -41q-107 0 -175.5 47.5t-68.5 133.5q0 128 187 212h-193z" />
<glyph unicode="&#x12f;" horiz-adv-x="575" d="M128 -205q0 52 30 97t149 108h-177v1071h316v-1071q-131 -80 -131 -173q0 -39 31.5 -66.5t72.5 -27.5q19 0 76 20l22 -87q-73 -38 -169 -38q-103 0 -161.5 48t-58.5 119zM130 1161v316h316v-316h-316z" />
<glyph unicode="&#x130;" horiz-adv-x="628" d="M145 0v1447h338v-1447h-338zM189 1723q0 49 34.5 86.5t90.5 37.5q49 0 88.5 -32t39.5 -91q0 -56 -37.5 -89.5t-90.5 -33.5q-58 0 -91.5 37.5t-33.5 84.5z" />
<glyph unicode="&#x131;" horiz-adv-x="575" d="M130 0v1071h316v-1071h-316z" />
<glyph unicode="&#x132;" horiz-adv-x="1440" d="M145 0v1447h338v-1447h-338zM626 0v281q101 -17 173 -17q63 0 99.5 23t53.5 55.5t17 114.5v990h338v-1033q0 -220 -105.5 -328t-346.5 -108q-106 0 -229 22z" />
<glyph unicode="&#x133;" horiz-adv-x="1158" d="M130 0v1071h316v-1071h-316zM130 1161v316h316v-316h-316zM511 -121q50 -5 73 -5q64 0 93 37.5t29 146.5v1013h324v-1013q0 -84 -2.5 -154.5t-38.5 -143t-114 -110t-191 -37.5q-65 0 -173 18v248zM706 1158v319h324v-319h-324z" />
<glyph unicode="&#x134;" horiz-adv-x="826" d="M15 0v281q101 -17 173 -17q63 0 99.5 23t53.5 55.5t17 114.5v990h338v-1033q0 -220 -105.5 -328t-346.5 -108q-106 0 -229 22zM149 1598l388 333l389 -333l-215 -22l-174 146l-174 -146z" />
<glyph unicode="&#x135;" horiz-adv-x="583" d="M-101 1259l388 333l389 -333l-215 -22l-174 146l-174 -146zM-66 -121q51 -5 74 -5q63 0 92.5 37.5t29.5 146.5v1013h323v-1013q0 -84 -2 -154.5t-38 -143t-114.5 -110t-191.5 -37.5q-65 0 -173 18v248z" />
<glyph unicode="&#x136;" horiz-adv-x="1368" d="M145 0v1447h333v-681l454 681h324l-348 -516l435 -931h-374l-287 628l-204 -296v-332h-333zM548 -523l59 407h246l-193 -407h-112z" />
<glyph unicode="&#x137;" horiz-adv-x="1178" d="M130 0v1447h298v-867l47 58q30 40 50 65l312 368h308l-308 -363l349 -708h-349l-223 485l-186 -212v-273h-298zM454 -523l59 407h246l-193 -407h-112z" />
<glyph unicode="&#x138;" horiz-adv-x="1178" d="M130 0v1071h298v-491l47 58q30 40 50 65l312 368h308l-308 -363l349 -708h-349l-223 485l-186 -212v-273h-298z" />
<glyph unicode="&#x139;" horiz-adv-x="1092" d="M145 0v1447h344v-1161h575v-286h-919zM147 1688l439 258l80 -178l-466 -198z" />
<glyph unicode="&#x13a;" horiz-adv-x="575" d="M130 0v1447h316v-1447h-316zM118 1684l439 258l80 -178l-466 -198z" />
<glyph unicode="&#x13b;" horiz-adv-x="1092" d="M145 0v1447h344v-1161h575v-286h-919zM430 -523l59 407h246l-193 -407h-112z" />
<glyph unicode="&#x13c;" horiz-adv-x="575" d="M130 0v1447h316v-1447h-316zM108 -523l59 407h246l-193 -407h-112z" />
<glyph unicode="&#x13d;" horiz-adv-x="1092" d="M145 0v1447h344v-1161h575v-286h-919zM664 1020l59 427h247l-194 -427h-112z" />
<glyph unicode="&#x13e;" horiz-adv-x="822" d="M130 0v1447h316v-1447h-316zM533 1020l59 427h247l-194 -427h-112z" />
<glyph unicode="&#x13f;" horiz-adv-x="1092" d="M145 0v1447h344v-1161h575v-286h-919zM696 584v321h328v-321h-328z" />
<glyph unicode="&#x140;" horiz-adv-x="903" d="M130 0v1447h316v-1447h-316zM577 584v321h328v-321h-328z" />
<glyph unicode="&#x141;" horiz-adv-x="1092" d="M15 338v261l130 129v719h343v-493l290 272v-259l-290 -274v-407h576v-286h-919v467z" />
<glyph unicode="&#x142;" horiz-adv-x="605" d="M15 429v203l130 123v692h316v-494l129 124v-203l-129 -124v-750h-316v552z" />
<glyph unicode="&#x143;" horiz-adv-x="1403" d="M145 0v1447h366l493 -853q-7 63 -7 96v757h262v-1447h-289l-567 977q1 -37 2 -48q4 -38 4 -63v-866h-264zM535 1684l439 258l80 -178l-466 -198z" />
<glyph unicode="&#x144;" horiz-adv-x="1191" d="M130 0v1071h294v-182q73 130 144 167t154 37q152 0 245.5 -82t93.5 -323v-688h-316v601q0 109 -8.5 149.5t-41.5 68.5t-82 28q-167 0 -167 -246v-601h-316zM415 1349l439 258l80 -178l-466 -198z" />
<glyph unicode="&#x145;" horiz-adv-x="1403" d="M145 0v1447h366l493 -853q-7 63 -7 96v757h262v-1447h-289l-567 977q1 -37 2 -48q4 -38 4 -63v-866h-264zM535 -523l59 407h246l-193 -407h-112z" />
<glyph unicode="&#x146;" horiz-adv-x="1191" d="M130 0v1071h294v-182q73 130 144 167t154 37q152 0 245.5 -82t93.5 -323v-688h-316v601q0 109 -8.5 149.5t-41.5 68.5t-82 28q-167 0 -167 -246v-601h-316zM429 -523l59 407h246l-193 -407h-112z" />
<glyph unicode="&#x147;" horiz-adv-x="1403" d="M145 0v1447h366l493 -853q-7 63 -7 96v757h262v-1447h-289l-567 977q1 -37 2 -48q4 -38 4 -63v-866h-264zM354 1895l214 21l175 -145l173 145l215 -21l-388 -333z" />
<glyph unicode="&#x148;" horiz-adv-x="1191" d="M130 0v1071h294v-182q73 130 144 167t154 37q152 0 245.5 -82t93.5 -323v-688h-316v601q0 109 -8.5 149.5t-41.5 68.5t-82 28q-167 0 -167 -246v-601h-316zM193 1556l214 21l175 -145l173 145l215 -21l-388 -333z" />
<glyph unicode="&#x149;" horiz-adv-x="1571" d="M511 0v1071h294v-182q73 130 144 167t154 37q152 0 245.5 -82t93.5 -323v-688h-316v601q0 109 -8.5 149.5t-41.5 68.5t-82 28q-167 0 -167 -246v-601h-316zM125 856l147 289h-147v302h309v-264l-191 -327h-118z" />
<glyph unicode="&#x14a;" horiz-adv-x="1408" d="M145 0v1447h328v-245q89 168 176.5 217.5t216.5 49.5t221 -62t134.5 -161.5t42.5 -316.5v-715q0 -200 -8 -277t-54 -156t-129.5 -123.5t-208.5 -44.5q-76 0 -197 24v256q68 -7 99 -7q85 0 125 50t40 199v713q0 146 -12.5 199.5t-61.5 93t-129 39.5q-107 0 -178.5 -77.5 t-71.5 -254.5v-848h-333z" />
<glyph unicode="&#x14b;" horiz-adv-x="1191" d="M130 0v1071h294v-182q73 130 144 167t154 37q152 0 245.5 -82t93.5 -323v-630q0 -148 -7.5 -204t-44.5 -114t-110 -92.5t-182 -34.5q-64 0 -167 18v248q50 -5 73 -5q66 0 94 40.5t28 143.5v543q0 109 -8.5 149.5t-41.5 68.5t-82 28q-167 0 -167 -246v-601h-316z" />
<glyph unicode="&#x14c;" horiz-adv-x="1387" d="M76 728q0 317 162.5 529t462.5 212q303 0 457 -226t154 -518q0 -315 -159 -531t-464 -216q-293 0 -453 219.5t-160 530.5zM431 724q0 -470 268 -470q258 0 258 469t-258 469q-268 0 -268 -468zM382 1642v151h651v-151h-651z" />
<glyph unicode="&#x14d;" horiz-adv-x="1161" d="M69 537q0 171 62 290.5t170 192.5t274 73q244 0 381.5 -160t137.5 -401q0 -237 -142.5 -395.5t-379.5 -158.5q-229 0 -366 157t-137 402zM402 541q0 -190 43.5 -272.5t135.5 -82.5q80 0 130 70t50 269q0 211 -44 286t-134 75t-135.5 -69.5t-45.5 -275.5zM263 1303v151 h651v-151h-651z" />
<glyph unicode="&#x14e;" horiz-adv-x="1387" d="M76 728q0 317 162.5 529t462.5 212q303 0 457 -226t154 -518q0 -315 -159 -531t-464 -216q-293 0 -453 219.5t-160 530.5zM431 724q0 -470 268 -470q258 0 258 469t-258 469q-268 0 -268 -468zM358 1882h166q17 -139 170 -139q156 0 172 139h167q-18 -143 -108.5 -223.5 t-234.5 -80.5q-134 0 -227 74.5t-105 229.5z" />
<glyph unicode="&#x14f;" horiz-adv-x="1161" d="M69 537q0 171 62 290.5t170 192.5t274 73q244 0 381.5 -160t137.5 -401q0 -237 -142.5 -395.5t-379.5 -158.5q-229 0 -366 157t-137 402zM402 541q0 -190 43.5 -272.5t135.5 -82.5q80 0 130 70t50 269q0 211 -44 286t-134 75t-135.5 -69.5t-45.5 -275.5zM244 1556h166 q17 -139 170 -139q156 0 172 139h167q-18 -143 -108.5 -223.5t-234.5 -80.5q-134 0 -227 74.5t-105 229.5z" />
<glyph unicode="&#x150;" horiz-adv-x="1387" d="M76 728q0 317 162.5 529t462.5 212q303 0 457 -226t154 -518q0 -315 -159 -531t-464 -216q-293 0 -453 219.5t-160 530.5zM431 724q0 -470 268 -470q258 0 258 469t-258 469q-268 0 -268 -468zM409 1674l338 272l102 -149l-373 -227zM786 1674l338 272l102 -149 l-372 -227z" />
<glyph unicode="&#x151;" horiz-adv-x="1162" d="M69 537q0 171 62 290.5t170 192.5t274 73q244 0 381.5 -160t137.5 -401q0 -237 -142.5 -395.5t-379.5 -158.5q-229 0 -366 157t-137 402zM402 541q0 -190 43.5 -272.5t135.5 -82.5q80 0 130 70t50 269q0 211 -44 286t-134 75t-135.5 -69.5t-45.5 -275.5zM297 1335 l338 272l102 -149l-373 -227zM674 1335l338 272l102 -149l-372 -227z" />
<glyph unicode="&#x152;" horiz-adv-x="2018" d="M76 720q0 303 167.5 526t499.5 223q91 0 188 -22h1030v-274h-684v-297h545v-271h-545v-319h684v-286h-1030q-98 -22 -192 -22q-337 0 -500 224.5t-163 517.5zM453 724q0 -470 271 -470q137 0 207 112v722q-66 104 -196 104q-162 0 -222 -131.5t-60 -336.5z" />
<glyph unicode="&#x153;" horiz-adv-x="1823" d="M69 538q0 256 148 405.5t378 149.5q190 0 337 -111q162 111 327 111t287 -84.5t165.5 -206t43.5 -319.5h-683q0 -277 204 -277q165 0 191 164l288 -23q-34 -167 -161.5 -268t-322.5 -101q-189 0 -339 108q-149 -108 -341 -108q-237 0 -379.5 156t-142.5 404zM409 537 q0 -197 49 -274t141 -77q90 0 136 77.5t46 266.5q0 191 -44 273.5t-140 82.5q-100 0 -144 -83t-44 -266zM1074 669h379q-16 222 -183 222q-175 0 -196 -222z" />
<glyph unicode="&#x154;" horiz-adv-x="1426" d="M145 0v1447h636q176 0 282.5 -41t176.5 -150t70 -243q0 -260 -251 -374l267 -639h-374l-223 573h-242v-573h-342zM487 820h207q102 0 148 14.5t82 64t36 112.5q0 61 -36 108.5t-78.5 58.5t-158.5 11h-200v-369zM501 1688l439 258l80 -178l-466 -198z" />
<glyph unicode="&#x155;" horiz-adv-x="753" d="M130 0v1071h290v-200q67 223 231 223q23 0 57 -3v-312q-96 0 -149.5 -29.5t-87.5 -106.5t-34 -207v-436h-307zM271 1349l439 258l80 -178l-466 -198z" />
<glyph unicode="&#x156;" horiz-adv-x="1426" d="M145 0v1447h636q176 0 282.5 -41t176.5 -150t70 -243q0 -260 -251 -374l267 -639h-374l-223 573h-242v-573h-342zM487 820h207q102 0 148 14.5t82 64t36 112.5q0 61 -36 108.5t-78.5 58.5t-158.5 11h-200v-369zM547 -523l59 407h246l-193 -407h-112z" />
<glyph unicode="&#x157;" horiz-adv-x="753" d="M130 0v1071h290v-200q67 223 231 223q23 0 57 -3v-312q-96 0 -149.5 -29.5t-87.5 -106.5t-34 -207v-436h-307zM109 -523l59 407h246l-193 -407h-112z" />
<glyph unicode="&#x158;" horiz-adv-x="1426" d="M145 0v1447h636q176 0 282.5 -41t176.5 -150t70 -243q0 -260 -251 -374l267 -639h-374l-223 573h-242v-573h-342zM487 820h207q102 0 148 14.5t82 64t36 112.5q0 61 -36 108.5t-78.5 58.5t-158.5 11h-200v-369zM291 1904l214 21l175 -145l173 145l215 -21l-388 -333z" />
<glyph unicode="&#x159;" horiz-adv-x="753" d="M130 0v1071h290v-200q67 223 231 223q23 0 57 -3v-312q-96 0 -149.5 -29.5t-87.5 -106.5t-34 -207v-436h-307zM42 1556l214 21l175 -145l173 145l215 -21l-388 -333z" />
<glyph unicode="&#x15a;" horiz-adv-x="1260" d="M0 379l314 71q53 -202 294 -202q117 0 174.5 45t57.5 108t-52 98t-201 66q-276 57 -394 156t-118 290q0 193 140.5 325.5t381.5 132.5q426 0 548 -340l-289 -97q-58 172 -246 172q-202 0 -202 -130q0 -52 37.5 -88t170.5 -63q221 -44 324 -89.5t173.5 -147t70.5 -226.5 q0 -196 -151 -339t-448 -143q-222 0 -378.5 101t-206.5 300zM446 1692l439 258l80 -178l-466 -198z" />
<glyph unicode="&#x15b;" horiz-adv-x="1027" d="M12 295l266 39q33 -144 237 -144q79 0 133 28t54 76q0 74 -120 88q-324 40 -426.5 124t-102.5 235q0 153 118.5 252.5t333.5 99.5q169 0 271 -67t156 -214l-230 -62q-41 146 -209 146q-159 0 -159 -97q0 -38 29 -60.5t152 -38.5q184 -25 271.5 -56.5t139 -107 t51.5 -185.5q0 -165 -125.5 -269t-351.5 -104q-409 0 -488 317zM336 1349l439 258l80 -178l-466 -198z" />
<glyph unicode="&#x15c;" horiz-adv-x="1260" d="M0 379l314 71q53 -202 294 -202q117 0 174.5 45t57.5 108t-52 98t-201 66q-276 57 -394 156t-118 290q0 193 140.5 325.5t381.5 132.5q426 0 548 -340l-289 -97q-58 172 -246 172q-202 0 -202 -130q0 -52 37.5 -88t170.5 -63q221 -44 324 -89.5t173.5 -147t70.5 -226.5 q0 -196 -151 -339t-448 -143q-222 0 -378.5 101t-206.5 300zM231 1602l388 333l389 -333l-215 -22l-174 146l-174 -146z" />
<glyph unicode="&#x15d;" horiz-adv-x="1027" d="M12 295l266 39q33 -144 237 -144q79 0 133 28t54 76q0 74 -120 88q-324 40 -426.5 124t-102.5 235q0 153 118.5 252.5t333.5 99.5q169 0 271 -67t156 -214l-230 -62q-41 146 -209 146q-159 0 -159 -97q0 -38 29 -60.5t152 -38.5q184 -25 271.5 -56.5t139 -107 t51.5 -185.5q0 -165 -125.5 -269t-351.5 -104q-409 0 -488 317zM123 1259l388 333l389 -333l-215 -22l-174 146l-174 -146z" />
<glyph unicode="&#x15e;" horiz-adv-x="1260" d="M0 379l314 71q53 -202 294 -202q117 0 174.5 45t57.5 108t-52 98t-201 66q-276 57 -394 156t-118 290q0 193 140.5 325.5t381.5 132.5q426 0 548 -340l-289 -97q-58 172 -246 172q-202 0 -202 -130q0 -52 37.5 -88t170.5 -63q221 -44 324 -89.5t173.5 -147t70.5 -226.5 q0 -202 -154 -342t-431 -140l-29 -87q34 5 59 5q82 0 140.5 -50.5t58.5 -126.5q0 -89 -70.5 -140t-164.5 -51q-141 0 -267 72l38 90q108 -50 168 -50q48 0 75 23t27 57q0 40 -35 63.5t-89 23.5q-27 0 -84 -9l56 187q-153 12 -293 107t-189 287z" />
<glyph unicode="&#x15f;" horiz-adv-x="1027" d="M12 295l266 39q33 -144 237 -144q79 0 133 28t54 76q0 74 -120 88q-324 40 -426.5 124t-102.5 235q0 153 118.5 252.5t333.5 99.5q169 0 271 -67t156 -214l-230 -62q-41 146 -209 146q-159 0 -159 -97q0 -38 29 -60.5t152 -38.5q184 -25 271.5 -56.5t139 -107 t51.5 -185.5q0 -156 -115.5 -261.5t-356.5 -111.5l-30 -84q20 3 31 3q80 0 132.5 -46.5t52.5 -113.5q0 -79 -59 -127t-157 -48q-110 0 -221 63l35 91q88 -49 145 -49q76 0 76 69q0 37 -33.5 57t-80.5 20q-20 0 -56 -4l62 174q-321 38 -390 312z" />
<glyph unicode="&#x160;" horiz-adv-x="1260" d="M0 379l314 71q53 -202 294 -202q117 0 174.5 45t57.5 108t-52 98t-201 66q-276 57 -394 156t-118 290q0 193 140.5 325.5t381.5 132.5q426 0 548 -340l-289 -97q-58 172 -246 172q-202 0 -202 -130q0 -52 37.5 -88t170.5 -63q221 -44 324 -89.5t173.5 -147t70.5 -226.5 q0 -196 -151 -339t-448 -143q-222 0 -378.5 101t-206.5 300zM236 1899l214 21l175 -145l173 145l215 -21l-388 -333z" />
<glyph unicode="&#x161;" horiz-adv-x="1027" d="M12 295l266 39q33 -144 237 -144q79 0 133 28t54 76q0 74 -120 88q-324 40 -426.5 124t-102.5 235q0 153 118.5 252.5t333.5 99.5q169 0 271 -67t156 -214l-230 -62q-41 146 -209 146q-159 0 -159 -97q0 -38 29 -60.5t152 -38.5q184 -25 271.5 -56.5t139 -107 t51.5 -185.5q0 -165 -125.5 -269t-351.5 -104q-409 0 -488 317zM123 1556l214 21l175 -145l173 145l215 -21l-388 -333z" />
<glyph unicode="&#x162;" horiz-adv-x="1062" d="M0 1161v286h1062v-286h-358v-1161h-344v1161h-360zM366 -523l59 407h246l-193 -407h-112z" />
<glyph unicode="&#x163;" horiz-adv-x="763" d="M1 825v246h188l25 315l271 22v-337h232v-246h-232v-453q0 -85 25.5 -113.5t120.5 -28.5q43 0 100 4v-234q-137 -23 -198 -23q-197 0 -279.5 75.5t-82.5 273.5v499h-170zM267 -523l59 407h246l-193 -407h-112z" />
<glyph unicode="&#x164;" horiz-adv-x="1062" d="M0 1161v286h1062v-286h-358v-1161h-344v1161h-360zM144 1899l214 21l175 -145l173 145l215 -21l-388 -333z" />
<glyph unicode="&#x165;" horiz-adv-x="891" d="M1 825v246h188l25 315l271 22v-337h232v-246h-232v-453q0 -85 25.5 -113.5t120.5 -28.5q43 0 100 4v-234q-137 -23 -198 -23q-197 0 -279.5 75.5t-82.5 273.5v499h-170zM602 1187l59 427h247l-194 -427h-112z" />
<glyph unicode="&#x166;" horiz-adv-x="1062" d="M0 1161v286h1062v-286h-358v-212h260v-218h-260v-731h-344v731h-260v218h260v212h-360z" />
<glyph unicode="&#x167;" horiz-adv-x="763" d="M1 825v246h188l25 315l271 22v-337h232v-246h-232v-156h217v-143h-217v-154q0 -85 25.5 -113.5t120.5 -28.5q43 0 100 4v-234q-137 -23 -198 -23q-197 0 -279.5 75.5t-82.5 273.5v200h-155v143h155v156h-170z" />
<glyph unicode="&#x168;" horiz-adv-x="1409" d="M130 546v901h368v-901q0 -117 19.5 -172t78.5 -87.5t145 -32.5q95 0 155 32t79.5 84.5t19.5 175.5v901h291v-901q0 -218 -50 -325t-184 -175t-343 -68t-332.5 61.5t-185 175t-61.5 331.5zM383 1732q106 116 225 116q68 0 157 -42q64 -31 96 -31q74 0 150 88l89 -118 q-104 -137 -235 -137q-64 0 -170 50q-52 23 -85 23q-65 0 -136 -68z" />
<glyph unicode="&#x169;" horiz-adv-x="1175" d="M130 371v700h307v-700q0 -144 118 -144q61 0 105.5 34.5t56.5 73.5t12 135v601h316v-1071h-292v182q-83 -204 -316 -204q-121 0 -185.5 45t-93 123t-28.5 225zM234 1384q106 116 225 116q68 0 157 -42q64 -31 96 -31q74 0 150 88l89 -118q-104 -137 -235 -137 q-64 0 -170 50q-52 23 -85 23q-65 0 -136 -68z" />
<glyph unicode="&#x16a;" horiz-adv-x="1409" d="M130 546v901h368v-901q0 -117 19.5 -172t78.5 -87.5t145 -32.5q95 0 155 32t79.5 84.5t19.5 175.5v901h291v-901q0 -218 -50 -325t-184 -175t-343 -68t-332.5 61.5t-185 175t-61.5 331.5zM378 1642v151h651v-151h-651z" />
<glyph unicode="&#x16b;" horiz-adv-x="1175" d="M130 371v700h307v-700q0 -144 118 -144q61 0 105.5 34.5t56.5 73.5t12 135v601h316v-1071h-292v182q-83 -204 -316 -204q-121 0 -185.5 45t-93 123t-28.5 225zM258 1303v151h651v-151h-651z" />
<glyph unicode="&#x16c;" horiz-adv-x="1409" d="M130 546v901h368v-901q0 -117 19.5 -172t78.5 -87.5t145 -32.5q95 0 155 32t79.5 84.5t19.5 175.5v901h291v-901q0 -218 -50 -325t-184 -175t-343 -68t-332.5 61.5t-185 175t-61.5 331.5zM400 1882h166q17 -139 170 -139q156 0 172 139h167q-18 -143 -108.5 -223.5 t-234.5 -80.5q-134 0 -227 74.5t-105 229.5z" />
<glyph unicode="&#x16d;" horiz-adv-x="1175" d="M130 371v700h307v-700q0 -144 118 -144q61 0 105.5 34.5t56.5 73.5t12 135v601h316v-1071h-292v182q-83 -204 -316 -204q-121 0 -185.5 45t-93 123t-28.5 225zM247 1556h166q17 -139 170 -139q156 0 172 139h167q-18 -143 -108.5 -223.5t-234.5 -80.5q-134 0 -227 74.5 t-105 229.5z" />
<glyph unicode="&#x16e;" horiz-adv-x="1409" d="M130 546v901h368v-901q0 -117 19.5 -172t78.5 -87.5t145 -32.5q95 0 155 32t79.5 84.5t19.5 175.5v901h291v-901q0 -218 -50 -325t-184 -175t-343 -68t-332.5 61.5t-185 175t-61.5 331.5zM517 1730q0 77 57 138.5t145 61.5t147 -58.5t59 -138.5q0 -82 -59.5 -142 t-147.5 -60q-87 0 -144 62t-57 137zM636 1730q0 -32 25 -56t60 -24t60.5 24t25.5 56q0 33 -25 57t-60 24q-37 0 -61.5 -24.5t-24.5 -56.5z" />
<glyph unicode="&#x16f;" horiz-adv-x="1175" d="M130 371v700h307v-700q0 -144 118 -144q61 0 105.5 34.5t56.5 73.5t12 135v601h316v-1071h-292v182q-83 -204 -316 -204q-121 0 -185.5 45t-93 123t-28.5 225zM380 1404q0 77 57 138.5t145 61.5t147 -58.5t59 -138.5q0 -82 -59.5 -142t-147.5 -60q-87 0 -144 62t-57 137z M499 1404q0 -32 25 -56t60 -24t60.5 24t25.5 56q0 33 -25 57t-60 24q-37 0 -61.5 -24.5t-24.5 -56.5z" />
<glyph unicode="&#x170;" horiz-adv-x="1409" d="M130 546v901h368v-901q0 -117 19.5 -172t78.5 -87.5t145 -32.5q95 0 155 32t79.5 84.5t19.5 175.5v901h291v-901q0 -218 -50 -325t-184 -175t-343 -68t-332.5 61.5t-185 175t-61.5 331.5zM434 1674l338 272l102 -149l-373 -227zM811 1674l338 272l102 -149l-372 -227z " />
<glyph unicode="&#x171;" horiz-adv-x="1175" d="M130 371v700h307v-700q0 -144 118 -144q61 0 105.5 34.5t56.5 73.5t12 135v601h316v-1071h-292v182q-83 -204 -316 -204q-121 0 -185.5 45t-93 123t-28.5 225zM304 1335l338 272l102 -149l-373 -227zM681 1335l338 272l102 -149l-372 -227z" />
<glyph unicode="&#x172;" horiz-adv-x="1409" d="M130 546v901h368v-901q0 -117 19.5 -172t78.5 -87.5t145 -32.5q95 0 155 32t79.5 84.5t19.5 175.5v901h291v-901q0 -232 -44.5 -315t-165.5 -178q-151 -119 -151 -216q0 -106 127 -106q44 0 93 19l22 -94q-90 -42 -189 -42q-117 0 -184.5 49t-67.5 133q0 48 26.5 92 t136.5 107q-98 -17 -180 -17q-209 0 -332.5 61.5t-185 175t-61.5 331.5z" />
<glyph unicode="&#x173;" horiz-adv-x="1175" d="M130 371v700h307v-700q0 -144 118 -144q61 0 105.5 34.5t56.5 73.5t12 135v601h316v-1071q-145 -84 -145 -169q0 -98 119 -98q25 0 82 20l23 -87q-77 -38 -183 -38q-108 0 -168 47t-60 120q0 128 187 205h-147v182q-83 -204 -316 -204q-121 0 -185.5 45t-93 123 t-28.5 225z" />
<glyph unicode="&#x174;" horiz-adv-x="1895" d="M15 1447h345l200 -883q1 -6 11 -47q5 -15 12 -44l236 974h313l244 -974q7 27 21 91l206 883h279l-365 -1447h-332l-238 957l-229 -957h-331zM596 1598l388 333l389 -333l-215 -22l-174 146l-174 -146z" />
<glyph unicode="&#x175;" horiz-adv-x="1565" d="M12 1071h329l174 -654l163 654h287l156 -659l182 659h244l-323 -1071h-278l-170 689l-169 -689h-266zM420 1259l388 333l389 -333l-215 -22l-174 146l-174 -146z" />
<glyph unicode="&#x176;" horiz-adv-x="1132" d="M-58 1447h393l277 -549l274 549h304l-454 -837v-610h-340v610zM193 1598l388 333l389 -333l-215 -22l-174 146l-174 -146z" />
<glyph unicode="&#x177;" horiz-adv-x="966" d="M-7 1071h333l206 -637l197 637h230l-335 -1028q-56 -171 -95.5 -248t-114.5 -123t-208 -46q-67 0 -152 13v242q84 -15 155 -15q93 0 125 35t48 99zM105 1259l388 333l389 -333l-215 -22l-174 146l-174 -146z" />
<glyph unicode="&#x178;" horiz-adv-x="1132" d="M-58 1447h393l277 -549l274 549h304l-454 -837v-610h-340v610zM276 1723q0 49 35 86.5t91 37.5q49 0 88.5 -32t39.5 -91q0 -56 -37.5 -89.5t-90.5 -33.5q-58 0 -92 37.5t-34 84.5zM631 1723q0 49 35.5 86.5t90.5 37.5q51 0 89 -32.5t38 -90.5q0 -56 -37.5 -89.5 t-90.5 -33.5q-58 0 -91.5 37.5t-33.5 84.5z" />
<glyph unicode="&#x179;" horiz-adv-x="1255" d="M43 0v246l730 927h-681v274h1096v-249l-731 -921h755v-277h-1169zM463 1688l439 258l80 -178l-466 -198z" />
<glyph unicode="&#x17a;" horiz-adv-x="929" d="M43 0v230l472 625h-432v216h782v-198l-477 -643h498v-230h-843zM316 1349l439 258l80 -178l-466 -198z" />
<glyph unicode="&#x17b;" horiz-adv-x="1255" d="M43 0v246l730 927h-681v274h1096v-249l-731 -921h755v-277h-1169zM514 1723q0 49 34.5 86.5t90.5 37.5q49 0 88.5 -32t39.5 -91q0 -56 -37.5 -89.5t-90.5 -33.5q-58 0 -91.5 37.5t-33.5 84.5z" />
<glyph unicode="&#x17c;" horiz-adv-x="929" d="M43 0v230l472 625h-432v216h782v-198l-477 -643h498v-230h-843zM355 1384q0 49 34.5 86.5t90.5 37.5q49 0 88.5 -32t39.5 -91q0 -56 -37.5 -89.5t-90.5 -33.5q-58 0 -91.5 37.5t-33.5 84.5z" />
<glyph unicode="&#x17d;" horiz-adv-x="1255" d="M43 0v246l730 927h-681v274h1096v-249l-731 -921h755v-277h-1169zM253 1891l214 21l175 -145l173 145l215 -21l-388 -333z" />
<glyph unicode="&#x17e;" horiz-adv-x="929" d="M43 0v230l472 625h-432v216h782v-198l-477 -643h498v-230h-843zM94 1556l214 21l175 -145l173 145l215 -21l-388 -333z" />
<glyph unicode="&#x17f;" horiz-adv-x="1273" d="M443 0v1071q0 167 25 244.5t114.5 133.5t240.5 56q64 0 147 -11v-244q-68 5 -112 5q-65 0 -87 -34t-22 -110v-1111h-306z" />
<glyph unicode="&#x192;" horiz-adv-x="1273" d="M66 -304l43 246q62 -9 92 -9q59 0 89 18t42 42.5t25 97.5l132 795h-132l50 247h125q35 221 129.5 327t306.5 106q76 0 162 -14l-41 -240q-46 11 -88 11q-81 0 -113.5 -33t-49.5 -157h192l-42 -247h-192l-140 -795q-28 -161 -75.5 -239t-147 -122t-225.5 -44 q-47 0 -142 10z" />
<glyph unicode="&#x1fa;" horiz-adv-x="1319" d="M0 0l465 1445q-22 41 -22 87q0 82 62.5 141.5t152.5 59.5t153 -59.5t63 -141.5q0 -46 -22 -88l457 -1444h-365l-88 298h-468l-91 -298h-297zM373 1841l456 221l70 -185l-473 -162zM470 565h307l-154 544zM565 1535q0 -41 27.5 -68.5t65.5 -27.5q39 0 66.5 28t27.5 65 q0 47 -29.5 70t-64.5 23q-37 0 -65 -25.5t-28 -64.5z" />
<glyph unicode="&#x1fb;" horiz-adv-x="1175" d="M66 279q0 100 54 185t173.5 133.5t436.5 71.5v61q0 156 -155 156q-167 0 -186 -156l-291 28q28 182 172 258.5t327 76.5q109 0 205.5 -25.5t150.5 -76.5t73 -107.5t19 -197.5v-486q0 -140 20 -200h-306q-15 64 -15 167q-80 -114 -160 -151.5t-182 -37.5 q-151 0 -243.5 81.5t-92.5 219.5zM399 313q0 -56 35 -97t99 -41q84 0 140.5 69.5t56.5 171.5v97q-331 -33 -331 -200zM412 1363q0 77 57 138.5t145 61.5t147 -58.5t59 -138.5q0 -82 -59.5 -142t-147.5 -60q-87 0 -144 62t-57 137zM531 1363q0 -32 25 -56t60 -24t60.5 24 t25.5 56q0 33 -25 57t-60 24q-37 0 -61.5 -24.5t-24.5 -56.5zM316 1667l439 258l80 -178l-466 -198z" />
<glyph unicode="&#x1fc;" horiz-adv-x="1829" d="M-15 0l663 1447h1123v-274h-663v-296h530v-272h-530v-319h663v-286h-1003v334h-338l-152 -334h-293zM531 576h237v521zM972 1688l439 258l80 -178l-466 -198z" />
<glyph unicode="&#x1fd;" horiz-adv-x="1737" d="M65 277q0 158 118 260t539 132v83q0 134 -156 134q-162 0 -180 -161l-286 27q26 181 168 261t314 80q186 0 314 -99q127 99 290 99q200 0 341 -137t141 -474h-662q0 -167 57 -222.5t139 -55.5q156 0 189 165l277 -23q-97 -368 -472 -368q-257 0 -407 192 q-152 -192 -397 -192q-150 0 -238.5 86.5t-88.5 212.5zM389 314q0 -55 36 -96t97 -41q82 0 141 67t59 167v101q-333 -17 -333 -198zM1007 669h369q-11 125 -54 171t-122 46q-168 0 -193 -217zM643 1349l439 258l80 -178l-466 -198z" />
<glyph unicode="&#x1fe;" horiz-adv-x="1387" d="M76 719q0 310 156 530t472 220q149 0 270 -58l90 154h193l-142 -263q197 -241 197 -579q0 -313 -159.5 -529t-475.5 -216q-147 0 -268 59l-86 -155h-192l146 266q-201 229 -201 571zM430 697q0 -126 31 -217l375 671q-59 41 -140 41q-154 0 -210 -144t-56 -351zM552 300 q52 -46 154 -46q251 0 251 465q0 145 -26 258zM429 1688l439 258l80 -178l-466 -198z" />
<glyph unicode="&#x1ff;" horiz-adv-x="1161" d="M69 532q0 233 129.5 397t377.5 164q135 0 211 -38l75 127h170l-115 -210q177 -159 177 -440q0 -236 -141 -395t-374 -159q-94 0 -203 34l-78 -123h-172l117 210q-174 162 -174 433zM401 582q0 -80 10 -190l259 467q-23 27 -89 27q-88 0 -134 -67t-46 -237zM488 216 q42 -32 90 -32q181 0 181 332q0 94 -10 174zM317 1349l439 258l80 -178l-466 -198z" />
<glyph unicode="&#x2c6;" horiz-adv-x="1085" d="M155 1259l388 333l389 -333l-215 -22l-174 146l-174 -146z" />
<glyph unicode="&#x2c7;" horiz-adv-x="1085" d="M155 1556l214 21l175 -145l173 145l215 -21l-388 -333z" />
<glyph unicode="&#x2c9;" horiz-adv-x="1085" d="M217 1303v151h651v-151h-651z" />
<glyph unicode="&#x2d8;" horiz-adv-x="1085" d="M205 1556h166q17 -139 170 -139q156 0 172 139h167q-18 -143 -108.5 -223.5t-234.5 -80.5q-134 0 -227 74.5t-105 229.5z" />
<glyph unicode="&#x2d9;" horiz-adv-x="1085" d="M416 1384q0 49 34.5 86.5t90.5 37.5q49 0 88.5 -32t39.5 -91q0 -56 -37.5 -89.5t-90.5 -33.5q-58 0 -91.5 37.5t-33.5 84.5z" />
<glyph unicode="&#x2da;" horiz-adv-x="1085" d="M339 1404q0 77 57 138.5t145 61.5t147 -58.5t59 -138.5q0 -82 -59.5 -142t-147.5 -60q-87 0 -144 62t-57 137zM458 1404q0 -32 25 -56t60 -24t60.5 24t25.5 56q0 33 -25 57t-60 24q-37 0 -61.5 -24.5t-24.5 -56.5z" />
<glyph unicode="&#x2db;" horiz-adv-x="1085" d="M648 -205q0 128 186 205h145q-145 -84 -145 -169q0 -44 32 -71t87 -27q25 0 84 20l21 -87q-78 -38 -182 -38q-105 0 -166.5 46t-61.5 121z" />
<glyph unicode="&#x2dc;" horiz-adv-x="1085" d="M184 1384q106 116 225 116q68 0 157 -42q64 -31 96 -31q74 0 150 88l89 -118q-104 -137 -235 -137q-64 0 -170 50q-52 23 -85 23q-65 0 -136 -68z" />
<glyph unicode="&#x2dd;" horiz-adv-x="1085" d="M273 1335l338 272l102 -149l-373 -227zM650 1335l338 272l102 -149l-372 -227z" />
<glyph unicode="&#x384;" horiz-adv-x="1085" d="M-234 1153l270 411l172 -117l-339 -376z" />
<glyph unicode="&#x385;" horiz-adv-x="1085" d="M238 1384q0 49 35 86.5t91 37.5q49 0 88.5 -32t39.5 -91q0 -56 -37.5 -89.5t-90.5 -33.5q-58 0 -92 37.5t-34 84.5zM442 1639l265 267l124 -138l-304 -221zM593 1384q0 49 35.5 86.5t90.5 37.5q51 0 89 -32.5t38 -90.5q0 -56 -37.5 -89.5t-90.5 -33.5q-58 0 -91.5 37.5 t-33.5 84.5z" />
<glyph unicode="&#x386;" horiz-adv-x="1319" d="M-123 1153l270 411l172 -117l-339 -376zM0 0l463 1447h393l453 -1447h-365l-88 298h-468l-91 -298h-297zM470 565h307l-154 508z" />
<glyph unicode="&#x387;" horiz-adv-x="327" d="M0 389v321h328v-321h-328z" />
<glyph unicode="&#x388;" horiz-adv-x="1237" d="M-390 1153l270 411l172 -117l-339 -376zM145 0v1447h1035v-276h-690v-297h542v-272h-542v-316h690v-286h-1035z" />
<glyph unicode="&#x389;" horiz-adv-x="1407" d="M-391 1153l270 411l172 -117l-339 -376zM145 0v1447h333v-564h453v564h333v-1447h-333v597h-453v-597h-333z" />
<glyph unicode="&#x38a;" horiz-adv-x="628" d="M-392 1153l270 411l172 -117l-339 -376zM145 0v1447h338v-1447h-338z" />
<glyph unicode="&#x38c;" horiz-adv-x="1387" d="M-243 1153l271 411l171 -117l-339 -376zM76 728q0 317 162.5 529t462.5 212q303 0 457 -226t154 -518q0 -315 -159 -531t-464 -216q-293 0 -453 219.5t-160 530.5zM431 724q0 -470 268 -470q258 0 258 469t-258 469q-268 0 -268 -468z" />
<glyph unicode="&#x38e;" horiz-adv-x="1132" d="M-544 1153l271 411l171 -117l-339 -376zM-57 1447h393l277 -549l274 549h304l-454 -837v-610h-339v610z" />
<glyph unicode="&#x38f;" horiz-adv-x="1486" d="M59 0v273h353q-334 144 -334 557q0 289 180 459.5t485 170.5t485 -171t180 -459q0 -412 -334 -557h353v-273h-601v273q227 125 227 495q0 198 -76.5 314t-233.5 116t-233 -116t-76 -314q0 -370 226 -495v-273h-601zM-264 1153l270 411l172 -117l-339 -376z" />
<glyph unicode="&#x390;" horiz-adv-x="575" d="M-16 1384q0 49 35 86.5t90 37.5q50 0 89 -32t39 -91q0 -56 -37.5 -89.5t-90.5 -33.5q-57 0 -91 37.5t-34 84.5zM130 0v1071h316v-1071h-316zM188 1639l265 267l124 -138l-305 -221zM338 1384q0 49 35.5 86.5t90.5 37.5q51 0 89 -32.5t38 -90.5q0 -56 -37.5 -89.5 t-90.5 -33.5q-57 0 -91 37.5t-34 84.5z" />
<glyph unicode="&#x391;" horiz-adv-x="1319" d="M0 0l463 1447h393l453 -1447h-365l-88 298h-468l-91 -298h-297zM470 565h307l-154 508z" />
<glyph unicode="&#x392;" horiz-adv-x="1414" d="M145 0v1447h674q182 0 273 -44.5t150.5 -127.5t59.5 -201q0 -241 -261 -321q150 -34 225.5 -135t75.5 -219q0 -163 -123 -281t-400 -118h-674zM483 268h261q134 0 189 46.5t55 130.5q0 70 -53 121t-176 51h-276v-349zM483 874h257q141 0 177.5 56t36.5 107q0 55 -30 94.5 t-66 49.5t-142 10h-233v-317z" />
<glyph unicode="&#x393;" horiz-adv-x="1014" d="M144 0v1447h870v-286h-537v-1161h-333z" />
<glyph unicode="&#x394;" horiz-adv-x="1286" d="M-31 0l476 1447h377l496 -1447h-1349zM329 286h545l-258 870h-25z" />
<glyph unicode="&#x395;" horiz-adv-x="1237" d="M144 0v1447h1035v-276h-690v-297h542v-272h-542v-316h690v-286h-1035z" />
<glyph unicode="&#x396;" horiz-adv-x="1255" d="M43 0v246l730 927h-681v274h1096v-249l-731 -921h755v-277h-1169z" />
<glyph unicode="&#x397;" horiz-adv-x="1407" d="M145 0v1447h333v-564h453v564h333v-1447h-333v597h-453v-597h-333z" />
<glyph unicode="&#x398;" horiz-adv-x="1507" d="M76 727q0 188 78 360.5t233.5 277t366.5 104.5q308 0 493 -208t185 -536q0 -323 -184 -535t-499 -212q-297 0 -485 199.5t-188 549.5zM420 725q0 -234 97 -352.5t238 -118.5q145 0 239.5 125.5t94.5 345.5q0 214 -94 340.5t-241 126.5q-160 0 -247 -136.5t-87 -330.5z M563 617v244h384v-244h-384z" />
<glyph unicode="&#x399;" horiz-adv-x="628" d="M145 0v1447h338v-1447h-338z" />
<glyph unicode="&#x39a;" horiz-adv-x="1368" d="M145 0v1447h333v-681l454 681h324l-348 -516l435 -931h-374l-287 628l-204 -296v-332h-333z" />
<glyph unicode="&#x39b;" horiz-adv-x="1221" d="M-32 0l407 1447h454l413 -1447h-366l-305 1146l-305 -1146h-298z" />
<glyph unicode="&#x39c;" horiz-adv-x="1859" d="M144 0v1447h528l253 -866l267 866h529v-1447h-341v1180l-363 -1180h-233l-356 1180v-1180h-284z" />
<glyph unicode="&#x39d;" horiz-adv-x="1403" d="M145 0v1447h366l493 -853q-7 63 -7 96v757h262v-1447h-289l-567 977q1 -37 2 -48q4 -38 4 -63v-866h-264z" />
<glyph unicode="&#x39e;" horiz-adv-x="1164" d="M72 0v286h1020v-286h-1020zM80 1173v274h1004v-274h-1004zM217 612v262h730v-262h-730z" />
<glyph unicode="&#x39f;" horiz-adv-x="1387" d="M76 728q0 317 162.5 529t462.5 212q303 0 457 -226t154 -518q0 -315 -159 -531t-464 -216q-293 0 -453 219.5t-160 530.5zM431 724q0 -470 268 -470q258 0 258 469t-258 469q-268 0 -268 -468z" />
<glyph unicode="&#x3a0;" horiz-adv-x="1363" d="M144 0v1447h1074v-1447h-333v1173h-408v-1173h-333z" />
<glyph unicode="&#x3a1;" horiz-adv-x="1310" d="M144 0v1447h570q191 0 292.5 -41t181 -146t79.5 -257q0 -107 -42.5 -209t-120 -160t-150 -77.5t-227.5 -19.5h-238v-537h-345zM477 800h220q127 0 177.5 58.5t50.5 133.5q0 88 -56.5 140t-172.5 52h-219v-384z" />
<glyph unicode="&#x3a3;" horiz-adv-x="1134" d="M65 0v271l416 468l-387 434v274h969v-274h-580l351 -377l-434 -510h703v-286h-1038z" />
<glyph unicode="&#x3a4;" horiz-adv-x="1062" d="M0 1161v286h1062v-286h-358v-1161h-344v1161h-360z" />
<glyph unicode="&#x3a5;" horiz-adv-x="1132" d="M-58 1447h393l277 -549l274 549h304l-454 -837v-610h-340v610z" />
<glyph unicode="&#x3a6;" horiz-adv-x="1628" d="M80 724q0 253 149.5 407.5t444.5 181.5v177h279v-177q297 -27 446 -182t149 -407q0 -253 -149.5 -407.5t-445.5 -181.5v-178h-279v178q-293 26 -443.5 181t-150.5 408zM391 724q0 -278 283 -348v696q-283 -70 -283 -348zM953 376q284 70 284 348t-284 348v-696z" />
<glyph unicode="&#x3a7;" horiz-adv-x="1301" d="M3 0l447 770l-396 677h394l235 -440l246 440h317l-396 -672l447 -775h-392l-290 526l-291 -526h-321z" />
<glyph unicode="&#x3a8;" horiz-adv-x="1835" d="M125 1020v427h333v-427q0 -229 16 -305.5t78 -121t200 -57.5v911h332v-911q141 13 201.5 58t77 121t16.5 305v427h333v-427q0 -250 -22.5 -366t-96 -207.5t-198 -137t-311.5 -50.5v-259h-332v259q-190 4 -315 51.5t-194 133t-93.5 207t-24.5 369.5z" />
<glyph unicode="&#x3a9;" horiz-adv-x="1486" d="M59 0v273h353q-334 144 -334 557q0 289 180 459.5t485 170.5t485 -171t180 -459q0 -412 -334 -557h353v-273h-601v273q227 125 227 495q0 198 -76.5 314t-233.5 116t-233 -116t-76 -314q0 -370 226 -495v-273h-601z" />
<glyph unicode="&#x3aa;" horiz-adv-x="628" d="M18 1725q0 48 35 86t90 38q50 0 89 -32.5t39 -90.5q0 -56 -37.5 -89.5t-90.5 -33.5q-57 0 -91 37t-34 85zM142 0v1447h338v-1447h-338zM372 1725q0 48 35.5 86t90.5 38q51 0 89 -33t38 -90q0 -56 -37.5 -89.5t-90.5 -33.5q-57 0 -91 37t-34 85z" />
<glyph unicode="&#x3ab;" horiz-adv-x="1132" d="M-58 1447h393l277 -549l274 549h304l-454 -837v-610h-340v610zM297 1723q0 49 35 86.5t91 37.5q49 0 88.5 -32t39.5 -91q0 -56 -37.5 -89.5t-90.5 -33.5q-58 0 -92 37.5t-34 84.5zM652 1723q0 49 35.5 86.5t90.5 37.5q51 0 89 -32.5t38 -90.5q0 -56 -37.5 -89.5 t-90.5 -33.5q-58 0 -91.5 37.5t-33.5 84.5z" />
<glyph unicode="&#x3ac;" horiz-adv-x="1346" d="M69 544q0 245 134 397t352 152q225 0 345 -223l62 201h335l-207 -507l235 -564h-350l-88 248q-132 -270 -363 -270q-204 0 -329.5 164.5t-125.5 401.5zM402 536q0 -145 53 -246t134 -101q90 0 141 102.5t92 251.5q-81 244 -130.5 291t-103.5 47q-79 0 -132.5 -92 t-53.5 -253zM410 1349l439 258l80 -178l-466 -198z" />
<glyph unicode="&#x3ad;" horiz-adv-x="1071" d="M76 318q0 192 235 252q-130 54 -164 106.5t-34 118.5q0 133 110 215.5t313 82.5q421 0 490 -299l-282 -47q-28 134 -169 134q-145 0 -145 -119q0 -61 49 -93t195 -30v-183q-110 -1 -156 -7t-77.5 -39t-31.5 -86q0 -135 160 -135q152 0 190 153l287 -44 q-33 -135 -151 -227.5t-327 -92.5q-267 0 -379.5 97t-112.5 243zM348 1349l439 258l80 -178l-466 -198z" />
<glyph unicode="&#x3ae;" horiz-adv-x="1217" d="M130 0v1071h292v-166q103 188 322 188q129 0 213.5 -55t110.5 -132t26 -242v-1025h-315v1033q0 179 -138 179q-88 0 -141.5 -60.5t-53.5 -166.5v-624h-316zM406 1349l439 258l80 -178l-466 -198z" />
<glyph unicode="&#x3af;" horiz-adv-x="575" d="M36 1349l439 258l80 -178l-466 -198zM128 0v1071h316v-1071h-316z" />
<glyph unicode="&#x3b0;" horiz-adv-x="1195" d="M122 480v591h316v-591q0 -182 26.5 -236t133.5 -54q106 0 133 53.5t27 236.5v591h316v-591q0 -201 -47 -298t-147 -150.5t-273 -53.5q-239 0 -362 100t-123 402zM293 1384q0 49 35 86.5t91 37.5q49 0 88.5 -32t39.5 -91q0 -56 -37.5 -89.5t-90.5 -33.5q-58 0 -92 37.5 t-34 84.5zM497 1639l265 267l124 -138l-304 -221zM648 1384q0 49 35.5 86.5t90.5 37.5q51 0 89 -32.5t38 -90.5q0 -56 -37.5 -89.5t-90.5 -33.5q-58 0 -91.5 37.5t-33.5 84.5z" />
<glyph unicode="&#x3b1;" horiz-adv-x="1346" d="M69 544q0 245 134 397t352 152q225 0 345 -223l62 201h335l-207 -507l235 -564h-350l-88 248q-132 -270 -363 -270q-204 0 -329.5 164.5t-125.5 401.5zM402 536q0 -145 53 -246t134 -101q90 0 141 102.5t92 251.5q-81 244 -130.5 291t-103.5 47q-79 0 -132.5 -92 t-53.5 -253z" />
<glyph unicode="&#x3b2;" horiz-adv-x="1261" d="M139 -361v1293q0 200 43 307t148 168.5t290 61.5q258 0 375 -105t117 -246q0 -240 -279 -303q361 -74 361 -391q0 -187 -128.5 -316.5t-330.5 -129.5q-181 0 -280 146v-485h-316zM455 288q68 -98 180 -98q99 0 162.5 72.5t63.5 209.5q0 73 -30 131t-77.5 81.5 t-141.5 23.5v178q112 2 148 54t36 134q0 193 -177 193q-81 0 -122.5 -48.5t-41.5 -244.5v-686z" />
<glyph unicode="&#x3b3;" horiz-adv-x="987" d="M-21 1071h337l211 -689l239 689h257l-377 -1060v-372h-315v372z" />
<glyph unicode="&#x3b4;" horiz-adv-x="1225" d="M76 507q0 197 118.5 325t340.5 148l-331 259v208h807v-230h-409l136 -87q412 -267 412 -624q0 -243 -142.5 -387.5t-392.5 -144.5q-247 0 -393 141.5t-146 391.5zM409 495q0 -166 50.5 -237.5t154.5 -71.5q110 0 156.5 81t46.5 235q0 157 -47.5 231t-153.5 74 q-94 0 -150.5 -65.5t-56.5 -246.5z" />
<glyph unicode="&#x3b5;" horiz-adv-x="1071" d="M76 318q0 192 235 252q-130 54 -164 106.5t-34 118.5q0 133 110 215.5t313 82.5q421 0 490 -299l-282 -47q-28 134 -169 134q-145 0 -145 -119q0 -61 49 -93t195 -30v-183q-110 -1 -156 -7t-77.5 -39t-31.5 -86q0 -135 160 -135q152 0 190 153l287 -44 q-33 -135 -151 -227.5t-327 -92.5q-267 0 -379.5 97t-112.5 243z" />
<glyph unicode="&#x3b6;" horiz-adv-x="895" d="M76 418q0 444 477 799h-411v230h717v-201q-187 -110 -318.5 -324.5t-131.5 -440.5q0 -132 53 -182t179 -56q99 -6 143.5 -29.5t72.5 -79.5t28 -153q0 -150 -93 -351l-262 34q70 138 70 233q0 56 -32 77t-113 24q-379 16 -379 420z" />
<glyph unicode="&#x3b7;" horiz-adv-x="1217" d="M130 0v1071h292v-166q103 188 322 188q129 0 213.5 -55t110.5 -132t26 -242v-1025h-315v1033q0 179 -138 179q-88 0 -141.5 -60.5t-53.5 -166.5v-624h-316z" />
<glyph unicode="&#x3b8;" horiz-adv-x="1225" d="M80 723q0 349 136 547.5t397 198.5t397 -201t136 -545q0 -347 -136.5 -546t-396.5 -199q-261 0 -397 198t-136 547zM404 654q1 -464 209 -464q202 0 209 464h-418zM404 843h418q-15 415 -207 415q-196 0 -211 -415z" />
<glyph unicode="&#x3b9;" horiz-adv-x="575" d="M130 0v1071h316v-1071h-316z" />
<glyph unicode="&#x3ba;" horiz-adv-x="1154" d="M130 0v1071h316v-347q0 -24 -3 -91q47 60 89 106l306 332h294l-333 -360l373 -711h-334l-248 479l-144 -150v-329h-316z" />
<glyph unicode="&#x3bb;" horiz-adv-x="984" d="M-21 0l357 982l-172 465h326l521 -1447h-326l-235 683l-234 -683h-237z" />
<glyph unicode="&#x3bc;" horiz-adv-x="1230" d="M130 -361v1432h316v-560q0 -124 12.5 -184t54.5 -98.5t100 -38.5q83 0 127.5 64t44.5 257v560h315v-1071h-254l-6 161q-60 -183 -212 -183q-70 0 -125 46t-57 99v-484h-316z" />
<glyph unicode="&#x3bd;" horiz-adv-x="979" d="M-7 1071h328l206 -679l211 679h234l-367 -1071h-246z" />
<glyph unicode="&#x3be;" horiz-adv-x="985" d="M69 384q0 148 79 235.5t246 144.5q-160 54 -204.5 108t-44.5 117q0 156 241 228h-267v230h820v-230h-150q-111 0 -169 -13.5t-99.5 -59t-41.5 -104.5q0 -178 258 -178h118v-227h-118q-126 0 -191 -15t-104.5 -64t-39.5 -124q0 -64 28.5 -103.5t73 -53t168.5 -29.5 q120 -15 178 -35t93.5 -73t35.5 -158q0 -134 -73 -351l-265 38q56 142 56 222q0 54 -36 75.5t-136 31.5q-276 25 -366 132t-90 256z" />
<glyph unicode="&#x3bf;" horiz-adv-x="1161" d="M69 537q0 171 62 290.5t170 192.5t274 73q244 0 381.5 -160t137.5 -401q0 -237 -142.5 -395.5t-379.5 -158.5q-229 0 -366 157t-137 402zM402 541q0 -190 43.5 -272.5t135.5 -82.5q80 0 130 70t50 269q0 211 -44 286t-134 75t-135.5 -69.5t-45.5 -275.5z" />
<glyph unicode="&#x3c0;" horiz-adv-x="1268" d="M39 841v230h1192v-230h-126v-841h-316v841h-309v-841h-315v841h-126z" />
<glyph unicode="&#x3c1;" horiz-adv-x="1232" d="M114 -361v790q0 241 36 365t163.5 211.5t314.5 87.5q243 0 389.5 -156t146.5 -423q0 -243 -129.5 -389.5t-330.5 -146.5q-175 0 -274 126v-465h-316zM431 535q0 -346 201 -346q199 0 199 352q0 190 -50.5 265.5t-150.5 75.5q-98 0 -148.5 -73.5t-50.5 -273.5z" />
<glyph unicode="&#x3c2;" horiz-adv-x="1098" d="M69 535q0 250 140 404t378 154q221 0 336.5 -111t136.5 -266l-288 -49q-19 215 -177 215q-86 0 -139.5 -68t-53.5 -206t42.5 -213.5t110 -103.5t232.5 -55q137 -22 196.5 -80t59.5 -203q0 -119 -64 -324l-272 48q46 104 46 204q0 63 -29.5 83t-104.5 29 q-173 20 -289.5 75t-188.5 178.5t-72 288.5z" />
<glyph unicode="&#x3c3;" horiz-adv-x="1238" d="M69 531q0 239 134 400.5t418 161.5q83 0 162 -22h429v-230h-227q106 -95 131 -178t25 -168q0 -225 -143 -373t-383 -148q-252 0 -399 145t-147 412zM402 534q0 -348 203 -348t203 352q0 198 -52.5 270.5t-150.5 72.5q-93 0 -148 -72t-55 -275z" />
<glyph unicode="&#x3c4;" horiz-adv-x="887" d="M-6 841v230h901v-230h-293v-841h-315v841h-293z" />
<glyph unicode="&#x3c5;" horiz-adv-x="1195" d="M122 480v591h316v-591q0 -182 26.5 -236t133.5 -54q106 0 133 53.5t27 236.5v591h316v-591q0 -201 -47 -298t-147 -150.5t-273 -53.5q-239 0 -362 100t-123 402z" />
<glyph unicode="&#x3c6;" horiz-adv-x="1555" d="M75 532q0 191 101 331t250 179l75 -231q-118 -99 -118 -277q0 -284 247 -343v893q79 9 154 9q379 0 538 -170.5t159 -393.5q0 -214 -142 -374t-424 -180v-336h-285v336q-253 12 -404 163.5t-151 393.5zM915 189q248 58 248 353q0 283 -248 345v-698z" />
<glyph unicode="&#x3c7;" horiz-adv-x="1082" d="M-42 -361l406 775l-352 657h334l242 -470l215 470h277l-359 -702l390 -730h-334l-273 551l-261 -551h-285z" />
<glyph unicode="&#x3c8;" horiz-adv-x="1652" d="M124 509v562h316v-570q0 -188 46.5 -242.5t191.5 -56.5v869h296v-869q144 0 192 54.5t48 244.5v570h316v-562q0 -204 -57 -313t-178.5 -162t-320.5 -58v-337h-296v337q-215 2 -330.5 63.5t-169.5 160t-54 309.5z" />
<glyph unicode="&#x3c9;" horiz-adv-x="1623" d="M69 491q0 360 277 614l229 -110q-173 -246 -173 -521q0 -153 45 -219t113 -66q57 0 83 61.5t26 257.5v293h287v-293q0 -200 26 -259.5t83 -59.5q67 0 112.5 65t45.5 220q0 275 -174 521l229 110q278 -254 278 -604q0 -269 -126 -396t-312 -127q-95 0 -165.5 35.5 t-140.5 159.5q-69 -124 -139.5 -159.5t-163.5 -35.5q-196 0 -318 132t-122 381z" />
<glyph unicode="&#x3ca;" horiz-adv-x="575" d="M-16 1384q0 49 35 86.5t90 37.5q50 0 89 -32t39 -91q0 -56 -37.5 -89.5t-90.5 -33.5q-57 0 -91 37.5t-34 84.5zM130 0v1071h316v-1071h-316zM338 1384q0 49 35.5 86.5t90.5 37.5q51 0 89 -32.5t38 -90.5q0 -56 -37.5 -89.5t-90.5 -33.5q-57 0 -91 37.5t-34 84.5z" />
<glyph unicode="&#x3cb;" horiz-adv-x="1195" d="M122 480v591h316v-591q0 -182 26.5 -236t133.5 -54q106 0 133 53.5t27 236.5v591h316v-591q0 -201 -47 -298t-147 -150.5t-273 -53.5q-239 0 -362 100t-123 402zM293 1384q0 49 35 86.5t91 37.5q49 0 88.5 -32t39.5 -91q0 -56 -37.5 -89.5t-90.5 -33.5q-58 0 -92 37.5 t-34 84.5zM648 1384q0 49 35.5 86.5t90.5 37.5q51 0 89 -32.5t38 -90.5q0 -56 -37.5 -89.5t-90.5 -33.5q-58 0 -91.5 37.5t-33.5 84.5z" />
<glyph unicode="&#x3cc;" horiz-adv-x="1161" d="M69 537q0 171 62 290.5t170 192.5t274 73q244 0 381.5 -160t137.5 -401q0 -237 -142.5 -395.5t-379.5 -158.5q-229 0 -366 157t-137 402zM331 1349l439 258l80 -178l-466 -198zM402 541q0 -190 43.5 -272.5t135.5 -82.5q80 0 130 70t50 269q0 211 -44 286t-134 75 t-135.5 -69.5t-45.5 -275.5z" />
<glyph unicode="&#x3cd;" horiz-adv-x="1195" d="M122 480v591h316v-591q0 -182 26.5 -236t133.5 -54q106 0 133 53.5t27 236.5v591h316v-591q0 -201 -47 -298t-147 -150.5t-273 -53.5q-239 0 -362 100t-123 402zM348 1349l439 258l80 -178l-466 -198z" />
<glyph unicode="&#x3ce;" horiz-adv-x="1623" d="M69 491q0 360 277 614l229 -110q-173 -246 -173 -521q0 -153 45 -219t113 -66q57 0 83 61.5t26 257.5v293h287v-293q0 -200 26 -259.5t83 -59.5q67 0 112.5 65t45.5 220q0 275 -174 521l229 110q278 -254 278 -604q0 -269 -126 -396t-312 -127q-95 0 -165.5 35.5 t-140.5 159.5q-69 -124 -139.5 -159.5t-163.5 -35.5q-196 0 -318 132t-122 381zM605 1349l439 258l80 -178l-466 -198z" />
<glyph unicode="&#x401;" horiz-adv-x="1203" d="M144 0v1447h1035v-276h-690v-297h542v-272h-542v-316h690v-286h-1035zM361 1723q0 49 35 86.5t91 37.5q49 0 88.5 -32t39.5 -91q0 -56 -37.5 -89.5t-90.5 -33.5q-58 0 -92 37.5t-34 84.5zM716 1723q0 49 35.5 86.5t90.5 37.5q51 0 89 -32.5t38 -90.5q0 -56 -37.5 -89.5 t-90.5 -33.5q-58 0 -91.5 37.5t-33.5 84.5z" />
<glyph unicode="&#x402;" horiz-adv-x="1385" d="M-17 1183v264h1055v-264h-492v-365q116 170 348 170q151 0 241.5 -55.5t124.5 -169t34 -451.5q0 -358 -51 -476.5t-156 -164t-293 -50.5l-15 235q77 7 114.5 30t56.5 92.5t19 313.5q0 290 -33.5 368.5t-156.5 78.5q-98 0 -165.5 -49t-67.5 -198v-492h-333v1183h-230z" />
<glyph unicode="&#x403;" horiz-adv-x="1014" d="M145 0v1447h827v-286h-494v-1161h-333zM383 1692l439 258l80 -178l-466 -198z" />
<glyph unicode="&#x404;" horiz-adv-x="1380" d="M76 723q0 340 170.5 543t475.5 203q432 0 591 -393l-301 -87q-75 203 -286 203q-155 0 -229.5 -103t-75.5 -228h503v-237h-508q0 -168 89 -269t231 -101q232 0 305 234l308 -59q-52 -179 -207 -315t-414 -136q-217 0 -366 105.5t-217.5 275t-68.5 364.5z" />
<glyph unicode="&#x405;" horiz-adv-x="1260" d="M0 379l314 71q53 -202 294 -202q117 0 174.5 45t57.5 108t-52 98t-201 66q-276 57 -394 156t-118 290q0 193 140.5 325.5t381.5 132.5q426 0 548 -340l-289 -97q-58 172 -246 172q-202 0 -202 -130q0 -52 37.5 -88t170.5 -63q221 -44 324 -89.5t173.5 -147t70.5 -226.5 q0 -196 -151 -339t-448 -143q-222 0 -378.5 101t-206.5 300z" />
<glyph unicode="&#x406;" horiz-adv-x="628" d="M145 0v1447h338v-1447h-338z" />
<glyph unicode="&#x407;" horiz-adv-x="632" d="M20 1725q0 48 35 86t90 38q50 0 89 -32.5t39 -90.5q0 -56 -37.5 -89.5t-90.5 -33.5q-57 0 -91 37t-34 85zM144 0v1447h338v-1447h-338zM374 1725q0 48 35.5 86t90.5 38q51 0 89.5 -33t38.5 -90q0 -56 -38 -89.5t-91 -33.5q-57 0 -91 37t-34 85z" />
<glyph unicode="&#x408;" horiz-adv-x="826" d="M15 0v281q101 -17 173 -17q63 0 99.5 23t53.5 55.5t17 114.5v990h338v-1033q0 -220 -105.5 -328t-346.5 -108q-106 0 -229 22z" />
<glyph unicode="&#x409;" horiz-adv-x="1849" d="M-32 0l379 1447h482l130 -531h306q215 0 319 -48t167 -154.5t63 -250.5q0 -197 -125 -330t-391 -133h-480l-250 1173h-15l-287 -1173h-298zM1024 653l93 -380h149q204 0 204 190t-199 190h-247z" />
<glyph unicode="&#x40a;" horiz-adv-x="2088" d="M145 0v1447h333v-564h439v564h333v-552h279q269 0 396 -117t127 -324q0 -211 -130.5 -332.5t-359.5 -121.5h-645v620h-439v-620h-333zM1250 273h253q207 0 207 183q0 176 -207 176h-253v-359z" />
<glyph unicode="&#x40b;" horiz-adv-x="1406" d="M-17 1183v264h1058v-264h-495v-360q111 165 334 165q152 0 238.5 -59t127 -152.5t40.5 -282.5v-494h-333v531q0 126 -51 166t-131 40q-95 0 -159.5 -44t-65.5 -148v-545h-333v1183h-230z" />
<glyph unicode="&#x40c;" horiz-adv-x="1368" d="M145 0v1447h333v-681l454 681h324l-348 -516l435 -931h-374l-287 628l-204 -296v-332h-333zM510 1694l439 257l80 -178l-466 -198z" />
<glyph unicode="&#x40e;" horiz-adv-x="1171" d="M-41 1447h363l317 -641l260 641h302l-442 -1071q-83 -202 -183.5 -289t-287.5 -87h-145v277h117q82 0 134 27t93 132zM290 1878h166q17 -139 170 -139q156 0 172 139h167q-18 -143 -108.5 -223.5t-234.5 -80.5q-134 0 -227 74.5t-105 229.5z" />
<glyph unicode="&#x40f;" horiz-adv-x="1373" d="M145 0v1447h333v-1174h419v1174h333v-1447h-416l-8 -304h-241l-10 304h-410z" />
<glyph unicode="&#x410;" horiz-adv-x="1319" d="M0 0l463 1447h393l453 -1447h-365l-88 298h-468l-91 -298h-297zM470 565h307l-154 508z" />
<glyph unicode="&#x411;" horiz-adv-x="1341" d="M145 0v1447h969v-260h-636v-316h244q190 0 300.5 -36.5t180.5 -139t70 -253.5q0 -209 -127.5 -325.5t-356.5 -116.5h-644zM478 273h261q92 0 142 48.5t50 126.5q0 169 -220 169h-233v-344z" />
<glyph unicode="&#x412;" horiz-adv-x="1414" d="M145 0v1447h674q182 0 273 -44.5t150.5 -127.5t59.5 -201q0 -241 -261 -321q150 -34 225.5 -135t75.5 -219q0 -163 -123 -281t-400 -118h-674zM483 268h261q134 0 189 46.5t55 130.5q0 70 -53 121t-176 51h-276v-349zM483 874h257q141 0 177.5 56t36.5 107q0 55 -30 94.5 t-66 49.5t-142 10h-233v-317z" />
<glyph unicode="&#x413;" horiz-adv-x="970" d="M145 0v1447h827v-286h-494v-1161h-333z" />
<glyph unicode="&#x414;" horiz-adv-x="1337" d="M-31 273h140l297 1174h523l300 -1174h139v-577h-219l-35 304h-892l-34 -304h-219v577zM403 273h464l-203 900h-58z" />
<glyph unicode="&#x415;" horiz-adv-x="1237" d="M144 0v1447h1035v-276h-690v-297h542v-272h-542v-316h690v-286h-1035z" />
<glyph unicode="&#x416;" horiz-adv-x="1874" d="M-31 0l498 729l-457 718h347l373 -597l55 -14v611h313v-611l56 14l373 597h312l-418 -625l533 -822h-357l-423 638l-76 -20v-618h-313v618l-77 20l-422 -638h-317z" />
<glyph unicode="&#x417;" horiz-adv-x="1273" d="M26 440l303 41q38 -227 274 -227q247 0 247 193q0 184 -207 184h-116v223h105q88 0 137 48t49 126q0 79 -61.5 121.5t-158.5 42.5q-115 0 -176.5 -42.5t-80.5 -154.5l-277 47q61 427 546 427q258 0 405 -107t147 -280q0 -226 -248 -310q290 -82 290 -335 q0 -202 -156.5 -330.5t-418.5 -128.5q-296 0 -444.5 128.5t-158.5 333.5z" />
<glyph unicode="&#x418;" horiz-adv-x="1447" d="M144 0v1447h333v-617q0 -159 -10 -321q83 185 163 299l340 488v151h333v-1447h-333v657q0 166 9 271q-68 -164 -163 -298l-339 -487v-143h-333z" />
<glyph unicode="&#x419;" horiz-adv-x="1452" d="M144 0v1447h333v-617q0 -159 -10 -321q83 185 163 299l340 488v151h333v-1447h-333v657q0 166 9 271q-68 -164 -163 -298l-339 -487v-143h-333zM258 1878h166q17 -139 170 -139q156 0 172 139h167q-18 -143 -108.5 -223.5t-234.5 -80.5q-134 0 -227 74.5t-105 229.5z" />
<glyph unicode="&#x41a;" horiz-adv-x="1368" d="M145 0v1447h333v-681l454 681h324l-348 -516l435 -931h-374l-287 628l-204 -296v-332h-333z" />
<glyph unicode="&#x41b;" horiz-adv-x="1221" d="M-32 0l407 1447h454l413 -1447h-366l-305 1146l-305 -1146h-298z" />
<glyph unicode="&#x41c;" horiz-adv-x="1859" d="M144 0v1447h528l253 -866l267 866h529v-1447h-341v1180l-363 -1180h-233l-356 1180v-1180h-284z" />
<glyph unicode="&#x41d;" horiz-adv-x="1407" d="M145 0v1447h333v-564h453v564h333v-1447h-333v597h-453v-597h-333z" />
<glyph unicode="&#x41e;" horiz-adv-x="1387" d="M76 728q0 317 162.5 529t462.5 212q303 0 457 -226t154 -518q0 -315 -159 -531t-464 -216q-293 0 -453 219.5t-160 530.5zM431 724q0 -470 268 -470q258 0 258 469t-258 469q-268 0 -268 -468z" />
<glyph unicode="&#x41f;" horiz-adv-x="1365" d="M145 0v1447h1076v-1447h-333v1183h-410v-1183h-333z" />
<glyph unicode="&#x420;" horiz-adv-x="1310" d="M144 0v1447h570q191 0 292.5 -41t181 -146t79.5 -257q0 -107 -42.5 -209t-120 -160t-150 -77.5t-227.5 -19.5h-238v-537h-345zM477 800h220q127 0 177.5 58.5t50.5 133.5q0 88 -56.5 140t-172.5 52h-219v-384z" />
<glyph unicode="&#x421;" horiz-adv-x="1362" d="M76 724q0 328 174 536.5t475 208.5q522 0 587 -561l-355 -22q-7 306 -238 306q-265 0 -265 -471q0 -273 72 -370t201 -97q210 0 257 274l328 -20q-32 -260 -193.5 -395t-395.5 -135q-287 0 -467 198t-180 548z" />
<glyph unicode="&#x422;" horiz-adv-x="1062" d="M0 1161v286h1062v-286h-358v-1161h-344v1161h-360z" />
<glyph unicode="&#x423;" horiz-adv-x="1153" d="M-41 1447h363l317 -641l260 641h302l-442 -1071q-83 -202 -183.5 -289t-287.5 -87h-145v277h117q82 0 134 27t93 132z" />
<glyph unicode="&#x424;" horiz-adv-x="1628" d="M80 724q0 253 149.5 407.5t444.5 181.5v177h279v-177q297 -27 446 -182t149 -407q0 -253 -149.5 -407.5t-445.5 -181.5v-178h-279v178q-293 26 -443.5 181t-150.5 408zM391 724q0 -278 283 -348v696q-283 -70 -283 -348zM953 376q284 70 284 348t-284 348v-696z" />
<glyph unicode="&#x425;" horiz-adv-x="1301" d="M3 0l447 770l-396 677h394l235 -440l246 440h317l-396 -672l447 -775h-392l-290 526l-291 -526h-321z" />
<glyph unicode="&#x426;" horiz-adv-x="1409" d="M156 0v1447h333v-1161h419v1161h333v-1161h177v-590h-226l-27 304h-1009z" />
<glyph unicode="&#x427;" horiz-adv-x="1366" d="M112 911v536h333v-547q0 -107 42.5 -147.5t142.5 -40.5q138 0 258 78v657h333v-1447h-333v563q-135 -127 -346 -127q-131 0 -236 58.5t-149.5 156.5t-44.5 260z" />
<glyph unicode="&#x428;" horiz-adv-x="2086" d="M156 0v1447h333v-1161h388v1161h332v-1161h388v1161h333v-1447h-1774z" />
<glyph unicode="&#x429;" horiz-adv-x="2099" d="M156 0v1447h333v-1161h388v1161h332v-1161h388v1161h333v-1161h182v-590h-220l-35 304h-1701z" />
<glyph unicode="&#x42a;" horiz-adv-x="1455" d="M-52 1161v286h672v-531h248q214 0 318.5 -48t167.5 -154.5t63 -249.5q0 -198 -125.5 -331t-389.5 -133h-615v1161h-339zM620 273h249q205 0 205 190t-200 190h-254v-380z" />
<glyph unicode="&#x42b;" horiz-adv-x="1921" d="M156 0v1447h333v-531h248q181 0 293.5 -37.5t184 -151t71.5 -262.5q0 -201 -126 -333t-389 -132h-615zM489 273h249q204 0 204 190t-199 190h-254v-380zM1433 0v1447h333v-1447h-333z" />
<glyph unicode="&#x42c;" horiz-adv-x="1313" d="M145 0v1447h333v-531h248q181 0 293.5 -37.5t184 -151t71.5 -262.5q0 -201 -126 -333t-389 -132h-615zM478 273h249q205 0 205 190t-200 190h-254v-380z" />
<glyph unicode="&#x42d;" horiz-adv-x="1380" d="M1304.01 723q0 340 -170.479 543t-475.442 203q-431.947 0 -590.928 -393l300.963 -87q74.9912 203 285.966 203q154.98 0 229.472 -103t75.4912 -228h-502.938v-237h507.938q0 -168 -88.9893 -269t-230.972 -101q-231.972 0 -304.963 234l-307.962 -59 q51.9932 -179 206.975 -315q154.98 -136 413.949 -136q216.974 0 365.955 105.5q148.982 105.5 217.474 275q68.4922 169.5 68.4922 364.5z" />
<glyph unicode="&#x42e;" horiz-adv-x="2077" d="M145 0v1447h333v-568h236q46 273 217.5 431.5t416.5 158.5q292 0 473 -203.5t181 -542.5q0 -306 -172.5 -525.5t-472.5 -219.5q-294 0 -462 190.5t-184 446.5h-233v-615h-333zM1052 723q0 -224 81.5 -346.5t211.5 -122.5q140 0 221 136.5t81 346.5t-80 332.5t-217 122.5 q-145 0 -221.5 -132t-76.5 -337z" />
<glyph unicode="&#x42f;" horiz-adv-x="1426" d="M58 0l310 639q-250 114 -250 374q0 163 110.5 298.5t418.5 135.5h636v-1447h-342v573h-286l-237 -573h-360zM467 1009q0 -62 38.5 -113t83.5 -63.5t145 -12.5h207v369h-200q-119 0 -162.5 -12.5t-77.5 -59.5t-34 -108z" />
<glyph unicode="&#x430;" horiz-adv-x="1175" d="M66 279q0 100 54 185t173.5 133.5t436.5 71.5v61q0 156 -155 156q-167 0 -186 -156l-291 28q28 182 172 258.5t327 76.5q109 0 205.5 -25.5t150.5 -76.5t73 -107.5t19 -197.5v-486q0 -140 20 -200h-306q-15 64 -15 167q-80 -114 -160 -151.5t-182 -37.5 q-151 0 -243.5 81.5t-92.5 219.5zM399 313q0 -56 35 -97t99 -41q84 0 140.5 69.5t56.5 171.5v97q-331 -33 -331 -200z" />
<glyph unicode="&#x431;" horiz-adv-x="1211" d="M76 601q0 194 35 347t113.5 263t157 153t203.5 73q83 22 106 40t29 66h312q-6 -78 -45.5 -131t-108 -82.5t-222.5 -61.5q-139 -30 -196.5 -89t-76.5 -179q102 57 141 70t122 13q218 0 355 -144t137 -392q0 -260 -144 -414.5t-389 -154.5q-170 0 -288.5 71.5t-179.5 199.5 t-61 352zM395 528q0 -189 52.5 -263.5t154.5 -74.5q100 0 151.5 74t51.5 264q0 192 -51.5 268t-151.5 76q-101 0 -154 -75.5t-53 -268.5z" />
<glyph unicode="&#x432;" horiz-adv-x="1190" d="M130 0v1071h613q108 0 178.5 -23.5t119 -91t48.5 -155.5q0 -185 -231 -240q266 -57 266 -272q0 -134 -93 -211.5t-261 -77.5h-640zM446 213h221q75 0 107.5 31t32.5 103q0 59 -27 96t-113 37h-221v-267zM446 635h224q121 0 121 115q0 118 -121 118h-224v-233z" />
<glyph unicode="&#x433;" horiz-adv-x="843" d="M130 0v1071h705v-230h-389v-841h-316z" />
<glyph unicode="&#x434;" horiz-adv-x="1116" d="M-17 223h130l246 848h442l203 -848h130v-469h-196l-33 246h-695l-32 -246h-195v469zM350 223h334l-123 632h-43z" />
<glyph unicode="&#x435;" horiz-adv-x="1160" d="M69 524q0 255 145.5 412t374.5 157q207 0 355 -146t148 -465h-689q-1 -28 -1 -50q0 -114 61 -172.5t145 -58.5q158 0 190 169l286 -21q-119 -371 -486 -371q-160 0 -272 64t-184.5 187t-72.5 295zM402 666h380q-15 220 -181 220q-178 0 -199 -220z" />
<glyph unicode="&#x436;" horiz-adv-x="1558" d="M-26 0l372 563l-347 508h314l270 -398l40 -7v405h316v-405l40 7l271 398h311l-336 -424l384 -647h-326l-271 464l-73 -21v-443h-316v443l-73 21l-277 -464h-299z" />
<glyph unicode="&#x437;" horiz-adv-x="1061" d="M29 298l287 44q36 -159 180 -159q163 0 163 138q0 52 -28.5 84.5t-74 41.5t-161.5 9v183q166 0 205 37t39 87q0 53 -36.5 86t-103.5 33q-141 0 -168 -135l-283 47q71 299 477 299q216 0 323.5 -84.5t107.5 -213.5q0 -155 -198 -225q234 -55 234 -253q0 -153 -120 -246 t-348 -93q-248 0 -358.5 100.5t-136.5 219.5z" />
<glyph unicode="&#x438;" horiz-adv-x="1233" d="M130 0v1071h316v-409q0 -108 -8 -240q80 138 141 221l210 291v137h316v-1071h-316v382q0 131 9 269q-57 -136 -132 -239l-220 -301v-111h-316z" />
<glyph unicode="&#x439;" horiz-adv-x="1233" d="M130 0v1071h316v-409q0 -108 -8 -240q80 138 141 221l210 291v137h316v-1071h-316v382q0 131 9 269q-57 -136 -132 -239l-220 -301v-111h-316zM280 1554h166q17 -139 170 -139q156 0 172 139h167q-18 -143 -108.5 -223.5t-234.5 -80.5q-134 0 -227 74.5t-105 229.5z" />
<glyph unicode="&#x43a;" horiz-adv-x="1147" d="M130 0v1071h316v-268q0 -64 -4 -188q37 54 90 110l323 346h293l-330 -368l369 -703h-331l-249 478l-161 -171v-307h-316z" />
<glyph unicode="&#x43b;" horiz-adv-x="988" d="M-25 0l357 1071h351l324 -1071h-326l-214 784l-255 -784h-237z" />
<glyph unicode="&#x43c;" horiz-adv-x="1620" d="M130 0v1071h457l233 -856l242 856h428v-1071h-288v854h-15l-243 -854h-313l-241 854h-15v-854h-245z" />
<glyph unicode="&#x43d;" horiz-adv-x="1220" d="M130 0v1071h316v-386h329v386h316v-1071h-316v455h-329v-455h-316z" />
<glyph unicode="&#x43e;" horiz-adv-x="1161" d="M69 537q0 171 62 290.5t170 192.5t274 73q244 0 381.5 -160t137.5 -401q0 -237 -142.5 -395.5t-379.5 -158.5q-229 0 -366 157t-137 402zM402 541q0 -190 43.5 -272.5t135.5 -82.5q80 0 130 70t50 269q0 211 -44 286t-134 75t-135.5 -69.5t-45.5 -275.5z" />
<glyph unicode="&#x43f;" horiz-adv-x="1179" d="M130 0v1071h919v-1071h-315v855h-288v-855h-316z" />
<glyph unicode="&#x440;" horiz-adv-x="1171" d="M130 -361v1432h291v-157q80 179 282 179q174 0 284.5 -139.5t110.5 -405.5q0 -283 -112 -426.5t-291 -143.5q-181 0 -258 141v-480h-307zM437 469q0 -114 13.5 -157.5t58 -78t96.5 -34.5q65 0 116 66.5t51 292.5q0 316 -168 316q-63 0 -115 -56t-52 -190v-159z" />
<glyph unicode="&#x441;" horiz-adv-x="1110" d="M69 529q0 251 145.5 407.5t389.5 156.5q196 0 325 -117.5t143 -294.5l-295 -17q-15 192 -167 192q-188 0 -188 -307q0 -205 52.5 -260t127.5 -55q146 0 175 186l295 -18q-18 -190 -150 -307t-341 -117q-227 0 -369.5 150t-142.5 401z" />
<glyph unicode="&#x442;" horiz-adv-x="854" d="M-21 841v230h898v-230h-288v-841h-314v841h-296z" />
<glyph unicode="&#x443;" horiz-adv-x="966" d="M-7 1071h333l206 -637l197 637h230l-335 -1028q-56 -171 -95.5 -248t-114.5 -123t-208 -46q-67 0 -152 13v242q84 -15 155 -15q93 0 125 35t48 99z" />
<glyph unicode="&#x444;" horiz-adv-x="1539" d="M76 530q0 242 155.5 386t398.5 164v358h281v-358q241 -20 396.5 -164t155.5 -386q0 -230 -140.5 -374.5t-411.5 -166.5v-350h-281v350q-272 22 -413 166.5t-141 374.5zM394 540q0 -303 244 -363v726q-244 -62 -244 -363zM901 177q244 60 244 363q0 301 -244 363v-726z " />
<glyph unicode="&#x445;" horiz-adv-x="1071" d="M0 0l353 576l-304 495h360l171 -290l169 290h271l-309 -495l361 -576h-361l-222 369l-219 -369h-270z" />
<glyph unicode="&#x446;" horiz-adv-x="1214" d="M130 0v1071h316v-841h309v841h315v-841h157v-476h-196l-31 246h-870z" />
<glyph unicode="&#x447;" horiz-adv-x="1150" d="M100 632v439h316v-406q0 -87 31.5 -114.5t94.5 -27.5q91 0 162 49v499h316v-1071h-316v396q-123 -84 -277 -84q-169 0 -248 88t-79 232z" />
<glyph unicode="&#x448;" horiz-adv-x="1789" d="M138 0v1071h316v-841h283v841h316v-841h284v841h314v-1071h-1513z" />
<glyph unicode="&#x449;" horiz-adv-x="1806" d="M139 0v1071h316v-841h283v841h316v-841h284v841h315v-841h166v-476h-196l-32 246h-1452z" />
<glyph unicode="&#x44a;" horiz-adv-x="1214" d="M-52 841v230h598v-380h246q196 0 287.5 -98t91.5 -247q0 -177 -102.5 -261.5t-276.5 -84.5h-562v841h-282zM546 213h189q77 0 111 29.5t34 108.5q0 138 -145 138h-189v-276z" />
<glyph unicode="&#x44b;" horiz-adv-x="1661" d="M138 0v1071h316v-380h246q195 0 287 -98t92 -247q0 -177 -102.5 -261.5t-276.5 -84.5h-562zM454 213h188q79 0 112.5 30t33.5 108q0 138 -146 138h-188v-276zM1208 0v1071h316v-1071h-316z" />
<glyph unicode="&#x44c;" horiz-adv-x="1115" d="M130 0v1071h316v-380h246q195 0 287.5 -98t92.5 -247q0 -177 -102.5 -261.5t-277.5 -84.5h-562zM446 213h189q78 0 111.5 30t33.5 108q0 138 -145 138h-189v-276z" />
<glyph unicode="&#x44d;" horiz-adv-x="1131" d="M26 292l291 46q42 -149 199 -149q98 0 154 62t56 162q0 12 -1 31h-414v202h414q0 110 -53.5 172.5t-152.5 62.5q-151 0 -184 -137l-294 49q118 300 476 300q250 0 398 -152.5t148 -408.5q0 -240 -141 -397t-418 -157q-362 0 -478 314z" />
<glyph unicode="&#x44e;" horiz-adv-x="1772" d="M130 0v1071h316v-409h177q37 198 182.5 314.5t350.5 116.5q251 0 399 -155t148 -401q0 -252 -153 -405.5t-391 -153.5q-228 0 -369.5 129.5t-167.5 336.5h-176v-444h-316zM939 533q0 -189 54.5 -266t165.5 -77q109 0 160.5 79t51.5 260q0 194 -53 273t-159 79 q-110 0 -165 -79t-55 -269z" />
<glyph unicode="&#x44f;" horiz-adv-x="1162" d="M28 0l243 476q-186 72 -186 264q0 157 96.5 244t260.5 87h590v-1071h-315v411h-209l-183 -411h-297zM385 735q0 -118 123 -118h215v251h-209q-129 0 -129 -133z" />
<glyph unicode="&#x451;" horiz-adv-x="1160" d="M69 524q0 255 145.5 412t374.5 157q207 0 355 -146t148 -465h-689q-1 -28 -1 -50q0 -114 61 -172.5t145 -58.5q158 0 190 169l286 -21q-119 -371 -486 -371q-160 0 -272 64t-184.5 187t-72.5 295zM298 1384q0 49 35 86.5t90 37.5q50 0 89 -32t39 -91q0 -56 -37.5 -89.5 t-90.5 -33.5q-57 0 -91 37.5t-34 84.5zM402 666h380q-15 220 -181 220q-178 0 -199 -220zM652 1384q0 49 35.5 86.5t90.5 37.5q51 0 89 -32.5t38 -90.5q0 -56 -37.5 -89.5t-90.5 -33.5q-57 0 -91 37.5t-34 84.5z" />
<glyph unicode="&#x452;" horiz-adv-x="1191" d="M-42 1176v179h178v114h305v-114h422v-179h-422v-297q106 171 307 171q141 0 221.5 -69.5t101 -192t20.5 -466.5q0 -291 -22 -414.5t-111.5 -199.5t-261.5 -76q-23 0 -56 1l-20 219q100 0 135 76.5t35 378.5q0 326 -29 409.5t-126 83.5q-83 0 -138 -65.5t-55 -183.5v-551 h-306v1176h-178z" />
<glyph unicode="&#x453;" horiz-adv-x="843" d="M130 0v1071h705v-230h-389v-841h-316zM246 1349l439 258l80 -178l-466 -198z" />
<glyph unicode="&#x454;" horiz-adv-x="1133" d="M1106 292l-290.964 46q-41.9951 -149 -198.977 -149q-97.9873 0 -153.98 62t-55.9932 162q0 12 1 31h413.949v202h-413.949q0 110 53.4932 172.5t152.481 62.5q150.981 0 183.978 -137l293.964 49q-117.985 300 -475.941 300q-249.97 0 -397.952 -152.5 q-147.981 -152.5 -147.981 -408.5q0 -240 140.982 -397q140.983 -157 417.949 -157q361.956 0 477.941 314z" />
<glyph unicode="&#x455;" horiz-adv-x="1027" d="M12 295l266 39q33 -144 237 -144q79 0 133 28t54 76q0 74 -120 88q-324 40 -426.5 124t-102.5 235q0 153 118.5 252.5t333.5 99.5q169 0 271 -67t156 -214l-230 -62q-41 146 -209 146q-159 0 -159 -97q0 -38 29 -60.5t152 -38.5q184 -25 271.5 -56.5t139 -107 t51.5 -185.5q0 -165 -125.5 -269t-351.5 -104q-409 0 -488 317z" />
<glyph unicode="&#x456;" horiz-adv-x="569" d="M130 0v1071h316v-1071h-316zM130 1161v316h316v-316h-316z" />
<glyph unicode="&#x457;" horiz-adv-x="575" d="M133 0v1071h316v-1071h-316zM8 1385q0 49 35 86.5t91 37.5q49 0 88.5 -32t39.5 -91q0 -56 -37.5 -89.5t-90.5 -33.5q-58 0 -92 37.5t-34 84.5zM363 1385q0 49 35.5 86.5t90.5 37.5q51 0 89 -32.5t38 -90.5q0 -56 -37.5 -89.5t-90.5 -33.5q-58 0 -91.5 37.5t-33.5 84.5z " />
<glyph unicode="&#x458;" horiz-adv-x="583" d="M-66 -121q50 -5 73 -5q64 0 93 37.5t29 146.5v1013h324v-1013q0 -84 -2.5 -154.5t-38.5 -143t-114 -110t-191 -37.5q-65 0 -173 18v248zM129 1158v319h324v-319h-324z" />
<glyph unicode="&#x459;" horiz-adv-x="1510" d="M-26 0l357 1071h351l94 -380h319q195 0 286.5 -97.5t91.5 -247.5q0 -179 -102.5 -262.5t-275.5 -83.5h-474l-155 784l-255 -784h-237zM826 489l69 -276h150q134 0 134 137q0 139 -134 139h-219z" />
<glyph unicode="&#x45a;" horiz-adv-x="1751" d="M130 0v1071h316v-386h312v386h315v-390h256q126 0 193.5 -24t126.5 -110t59 -207q0 -169 -102 -254.5t-277 -85.5h-571v455h-312v-455h-316zM1073 213h206q134 0 134 136q0 131 -134 131h-206v-267z" />
<glyph unicode="&#x45b;" horiz-adv-x="1206" d="M-42 1176v179h178v114h314v-114h409v-179h-409v-297q113 171 310 171q94 0 166.5 -33.5t111 -89t51 -104.5t12.5 -186v-637h-314v600q0 111 -32.5 155.5t-104.5 44.5q-84 0 -142 -65.5t-58 -183.5v-551h-314v1176h-178z" />
<glyph unicode="&#x45c;" horiz-adv-x="1147" d="M130 0v1071h316v-268q0 -64 -4 -188q37 54 90 110l323 346h293l-330 -368l369 -703h-331l-249 478l-161 -171v-307h-316zM455 1301l153 176l269 25l-145 -172z" />
<glyph unicode="&#x45e;" horiz-adv-x="966" d="M-7 1071h333l206 -637l197 637h230l-335 -1028q-56 -171 -95.5 -248t-114.5 -123t-208 -46q-67 0 -152 13v242q84 -15 155 -15q93 0 125 35t48 99zM196 1552h167q16 -139 169 -139q157 0 173 139h166q-18 -143 -108.5 -223.5t-233.5 -80.5q-135 0 -227.5 74.5 t-105.5 229.5z" />
<glyph unicode="&#x45f;" horiz-adv-x="1200" d="M130 0v1071h316v-845h309v845h316v-1071h-345l-27 -246h-195l-28 246h-346z" />
<glyph unicode="&#x490;" horiz-adv-x="1014" d="M144 0v1447h617v271h253v-557h-537v-1161h-333z" />
<glyph unicode="&#x491;" horiz-adv-x="843" d="M130 0v1071h478v243h227v-473h-389v-841h-316z" />
<glyph unicode="&#x1e80;" horiz-adv-x="1895" d="M15 1447h345l200 -883q1 -6 11 -47q5 -15 12 -44l236 974h313l244 -974q7 27 21 91l206 883h279l-365 -1447h-332l-238 957l-229 -957h-331zM722 1764l81 178l438 -258l-53 -118z" />
<glyph unicode="&#x1e81;" horiz-adv-x="1565" d="M12 1071h329l174 -654l163 654h287l156 -659l182 659h244l-323 -1071h-278l-170 689l-169 -689h-266zM555 1429l81 178l438 -258l-53 -118z" />
<glyph unicode="&#x1e82;" horiz-adv-x="1895" d="M15 1447h345l200 -883q1 -6 11 -47q5 -15 12 -44l236 974h313l244 -974q7 27 21 91l206 883h279l-365 -1447h-332l-238 957l-229 -957h-331zM713 1697l439 258l80 -178l-466 -198z" />
<glyph unicode="&#x1e83;" horiz-adv-x="1565" d="M12 1071h329l174 -654l163 654h287l156 -659l182 659h244l-323 -1071h-278l-170 689l-169 -689h-266zM555 1349l439 258l80 -178l-466 -198z" />
<glyph unicode="&#x1e84;" horiz-adv-x="1895" d="M15 1447h345l200 -883q1 -6 11 -47q5 -15 12 -44l236 974h313l244 -974q7 27 21 91l206 883h279l-365 -1447h-332l-238 957l-229 -957h-331zM670 1727q0 49 35 86.5t91 37.5q49 0 88.5 -32t39.5 -91q0 -56 -37.5 -89.5t-90.5 -33.5q-58 0 -92 37.5t-34 84.5zM1025 1727 q0 49 35.5 86.5t90.5 37.5q51 0 89 -32.5t38 -90.5q0 -56 -37.5 -89.5t-90.5 -33.5q-58 0 -91.5 37.5t-33.5 84.5z" />
<glyph unicode="&#x1e85;" horiz-adv-x="1565" d="M12 1071h329l174 -654l163 654h287l156 -659l182 659h244l-323 -1071h-278l-170 689l-169 -689h-266zM518 1384q0 49 35 86.5t91 37.5q49 0 88.5 -32t39.5 -91q0 -56 -37.5 -89.5t-90.5 -33.5q-58 0 -92 37.5t-34 84.5zM873 1384q0 49 35.5 86.5t90.5 37.5q51 0 89 -32.5 t38 -90.5q0 -56 -37.5 -89.5t-90.5 -33.5q-58 0 -91.5 37.5t-33.5 84.5z" />
<glyph unicode="&#x1ef2;" horiz-adv-x="1132" d="M-58 1447h393l277 -549l274 549h304l-454 -837v-610h-340v610zM340 1768l81 178l438 -258l-53 -118z" />
<glyph unicode="&#x1ef3;" horiz-adv-x="966" d="M-7 1071h333l206 -637l197 637h230l-335 -1028q-56 -171 -95.5 -248t-114.5 -123t-208 -46q-67 0 -152 13v242q84 -15 155 -15q93 0 125 35t48 99zM275 1429l81 178l438 -258l-53 -118z" />
<glyph unicode="&#x2000;" horiz-adv-x="1031" />
<glyph unicode="&#x2001;" horiz-adv-x="2062" />
<glyph unicode="&#x2002;" horiz-adv-x="1031" />
<glyph unicode="&#x2003;" horiz-adv-x="2062" />
<glyph unicode="&#x2004;" horiz-adv-x="687" />
<glyph unicode="&#x2005;" horiz-adv-x="515" />
<glyph unicode="&#x2006;" horiz-adv-x="343" />
<glyph unicode="&#x2007;" horiz-adv-x="343" />
<glyph unicode="&#x2008;" horiz-adv-x="257" />
<glyph unicode="&#x2009;" horiz-adv-x="412" />
<glyph unicode="&#x200a;" horiz-adv-x="114" />
<glyph unicode="&#x2010;" horiz-adv-x="558" d="M25 436v230h507v-230h-507z" />
<glyph unicode="&#x2011;" horiz-adv-x="558" d="M25 436v230h507v-230h-507z" />
<glyph unicode="&#x2012;" horiz-adv-x="558" d="M25 436v230h507v-230h-507z" />
<glyph unicode="&#x2013;" horiz-adv-x="1273" d="M172 436v230h929v-230h-929z" />
<glyph unicode="&#x2014;" horiz-adv-x="1446" d="M-43 435v231h1533v-231h-1533z" />
<glyph unicode="&#x2015;" horiz-adv-x="1446" d="M-43 435v231h1533v-231h-1533z" />
<glyph unicode="&#x2017;" horiz-adv-x="1085" d="M0 -105h1085v-168h-1085v168zM0 -359h1085v-169h-1085v169z" />
<glyph unicode="&#x2018;" horiz-adv-x="558" d="M125 856v265l191 326h118l-148 -287h148v-304h-309z" />
<glyph unicode="&#x2019;" horiz-adv-x="558" d="M125 856l147 289h-147v302h309v-264l-191 -327h-118z" />
<glyph unicode="&#x201a;" horiz-adv-x="558" d="M125 0v302h309v-264l-191 -326h-118l147 288h-147z" />
<glyph unicode="&#x201b;" horiz-adv-x="558" d="M125 1183v264h309v-302h-148l148 -289h-118z" />
<glyph unicode="&#x201c;" horiz-adv-x="950" d="M123 855v298l179 294h114l-146 -294h146v-298h-293zM542 855v298l174 294h112l-151 -294h151v-298h-286z" />
<glyph unicode="&#x201d;" horiz-adv-x="950" d="M123 855l150 294h-150v298h286v-298l-174 -294h-112zM535 855l146 294h-146v298h293v-298l-180 -294h-113z" />
<glyph unicode="&#x201e;" horiz-adv-x="950" d="M123 0v298h286v-298l-174 -294h-112l150 294h-150zM535 0v298h293v-298l-180 -294h-113l146 294h-146z" />
<glyph unicode="&#x2020;" horiz-adv-x="1273" d="M113 820v248h376v379h296v-379h376v-248h-376v-1169h-296v1169h-376z" />
<glyph unicode="&#x2021;" horiz-adv-x="1273" d="M113 45v247h376v528h-376v248h376v379h296v-379h376v-248h-376v-528h376v-247h-376v-394h-296v394h-376z" />
<glyph unicode="&#x2022;" horiz-adv-x="1446" d="M425 738q0 125 87.5 214t211.5 89q123 0 210.5 -89t87.5 -214q0 -124 -87.5 -213.5t-210.5 -89.5q-126 0 -212.5 89.5t-86.5 213.5z" />
<glyph unicode="&#x2026;" horiz-adv-x="1720" d="M123 0v328h327v-328h-327zM696 0v328h329v-328h-329zM1271 0v328h326v-328h-326z" />
<glyph unicode="&#x202f;" horiz-adv-x="412" />
<glyph unicode="&#x2030;" horiz-adv-x="2205" d="M61 1084q0 158 77 266t222 108t222.5 -107.5t77.5 -264.5q0 -160 -78 -266.5t-223 -106.5q-143 0 -220.5 108t-77.5 263zM255 1088q0 -133 23.5 -186.5t81.5 -53.5t82 53t24 179q0 141 -23 194t-82 53t-82.5 -52.5t-23.5 -186.5zM264 0l801 1447h161l-802 -1447h-160z M835 361q0 158 77 265.5t223 107.5q144 0 222 -108t78 -263q0 -161 -78.5 -267.5t-222.5 -106.5t-221.5 108t-77.5 264zM1029 364q0 -134 24.5 -187t81.5 -53t81.5 53.5t24.5 177.5q0 141 -23 194.5t-82 53.5q-54 0 -80.5 -46t-26.5 -193zM1543 361q0 158 77.5 265.5 t222.5 107.5t223 -108t78 -263q0 -161 -78 -267.5t-224 -106.5q-144 0 -221.5 108t-77.5 264zM1738 364q0 -132 24 -186t82 -54t82 53t24 180q0 153 -27 199.5t-79 46.5q-53 0 -79.5 -45.5t-26.5 -193.5z" />
<glyph unicode="&#x2032;" horiz-adv-x="420" d="M42 845l166 602h256l-240 -602h-182z" />
<glyph unicode="&#x2033;" horiz-adv-x="804" d="M42 845l166 602h256l-240 -602h-182zM456 845l164 602h257l-241 -602h-180z" />
<glyph unicode="&#x2039;" horiz-adv-x="447" d="M72 558l180 309h107l-107 -309l107 -305h-107z" />
<glyph unicode="&#x203a;" horiz-adv-x="447" d="M87 253l107 305l-107 309h107l180 -309l-180 -305h-107z" />
<glyph unicode="&#x203c;" horiz-adv-x="1085" d="M95 0v319h330v-319h-330zM102 1058v389h317v-385l-84 -616h-149zM660 0v319h330v-319h-330zM666 1058v389h318v-385l-84 -616h-151z" />
<glyph unicode="&#x203e;" horiz-adv-x="1215" d="M-45 1903v78h1305v-78h-1305z" />
<glyph unicode="&#x2044;" horiz-adv-x="231" d="M-369 0l801 1447h169l-802 -1447h-168z" />
<glyph unicode="&#x205f;" horiz-adv-x="515" />
<glyph unicode="&#x207f;" horiz-adv-x="782" d="M91 579v646h206l2 -74l84 74q15 13 78 13q107 0 168.5 -48t61.5 -198v-413h-218v362q0 80 -14.5 108.5t-56.5 28.5q-92 0 -92 -137v-362h-219z" />
<glyph unicode="&#x20a3;" horiz-adv-x="1203" d="M12 183v218h133v1046h1028v-286h-677v-325h536v-270h-536v-165h245v-218h-245v-183h-351v183h-133z" />
<glyph unicode="&#x20a4;" horiz-adv-x="1274" d="M15 0v270h94q100 0 160 61t64 168h-215v166h201q-5 37 -21 124h-180v165h155q-2 45 -2 77q0 219 129 328.5t328 109.5q319 0 419 -274l-271 -109q-34 139 -145 139q-52 0 -93.5 -38t-41.5 -129q0 -35 9 -104h248v-165h-223q9 -73 10 -124h213v-166h-227 q-29 -126 -151 -229h217q188 0 246 203l294 -88q-102 -385 -527 -385h-690z" />
<glyph unicode="&#x20a7;" horiz-adv-x="2347" d="M156 0v1447h486q186 0 285.5 -41t177.5 -146t78 -257q0 -107 -41 -208.5t-117 -160t-146 -78t-225 -19.5h-165v-537h-333zM477 800h148q127 0 177.5 58.5t50.5 133.5q0 88 -56.5 140t-172.5 52h-147v-384zM1161 487v160h116l16 185l191 14v-199h143v-160h-143v-260 q0 -51 14 -63.5t69 -12.5q18 0 70 2v-152q-98 -15 -136 -15q-121 0 -178 45t-57 168v288h-105zM1682 187l188 26q18 -87 138 -87q105 0 105 55q0 38 -64 45q-206 21 -272.5 75.5t-66.5 142.5q0 93 77.5 154t215.5 61q212 0 277 -170l-164 -42l-2 6q-28 76 -120 76 q-87 0 -87 -50q0 -25 20.5 -34.5t81.5 -17.5q172 -21 234.5 -67t62.5 -146q0 -101 -82.5 -164t-221.5 -63q-273 0 -320 200z" />
<glyph unicode="&#x20ac;" horiz-adv-x="1272" d="M33 491v162h79l-2 70q0 40 2 56h-79v165h97q47 256 197 390.5t387 134.5q202 0 354 -121t185 -325l-356 -24q-10 82 -61.5 137t-127.5 55q-186 0 -228 -247h243v-165h-259v-58q0 -48 2 -68h257v-162h-236q51 -237 230 -237q146 0 190 217l350 -19q-49 -246 -174.5 -359.5 t-370.5 -113.5q-478 0 -580 512h-99z" />
<glyph unicode="&#x2105;" horiz-adv-x="1988" d="M89 1095q0 167 103 271.5t277 104.5q138 0 230 -79t101 -201l-215 -11q-9 127 -113 127q-128 0 -128 -198q0 -133 35 -168.5t87 -35.5q103 0 119 122l215 -12q-12 -131 -106 -209.5t-241 -78.5q-166 0 -265 102t-99 266zM514 0l803 1447h167l-802 -1447h-168zM1172 350 q0 161 97 265.5t263 104.5q174 0 270 -107.5t96 -266.5q0 -158 -100.5 -264t-267.5 -106q-163 0 -260.5 105t-97.5 269zM1414 351q0 -122 28.5 -176t93.5 -54q121 0 121 220q0 128 -27 181t-93 53q-61 0 -92 -44t-31 -180z" />
<glyph unicode="&#x2113;" horiz-adv-x="1273" d="M310 383q0 27 28 60q72 81 103 119q65 374 176.5 639t280.5 265q82 0 129 -58.5t47 -148.5q0 -303 -383 -684q-59 -308 -59 -385q0 -68 33 -68q38 0 85 102q22 44 50 44q41 0 41 -48q0 -85 -73 -169.5t-171 -84.5q-81 0 -128.5 68.5t-47.5 249.5q0 37 3 97 q-55 -59 -72 -59q-14 0 -28 17t-14 44zM723 773q95 106 156 237.5t61 232.5q0 78 -38 78q-80 0 -179 -548z" />
<glyph unicode="&#x2116;" horiz-adv-x="2170" d="M144 0v1447h366l493 -853q-7 63 -7 96v757h262v-1447h-289l-567 977q1 -37 2 -48q4 -38 4 -63v-866h-264zM1397 748q0 154 92.5 253t248.5 99q174 0 262 -106t88 -249q0 -150 -96 -250.5t-255 -100.5q-153 0 -246.5 99.5t-93.5 254.5zM1417 0v230h655v-230h-655z M1643 750q0 -202 100 -202q99 0 99 195q0 104 -20.5 154t-77.5 50q-54 0 -77.5 -42.5t-23.5 -154.5z" />
<glyph unicode="&#x2122;" horiz-adv-x="1874" d="M-7 1273v174h694v-174h-232v-651h-231v651h-231zM765 622v825h350l157 -470l166 470h350v-825h-232v627l-220 -627h-159l-212 616v-616h-200z" />
<glyph unicode="&#x2126;" horiz-adv-x="1667" d="M74 0v352h32q17 -70 42.5 -101.5t101.5 -31.5h343l-5 61q-252 69 -361 234t-109 352q0 275 203.5 451.5t513.5 176.5q311 0 514.5 -176.5t203.5 -451.5q0 -187 -109 -352t-362 -234l-4 -61h342q77 0 102.5 31.5t42.5 101.5h31v-352h-640l35 330q171 62 240 211.5 t69 331.5q0 241 -113.5 396t-351.5 155q-237 0 -350.5 -155t-113.5 -396q0 -182 69 -331.5t239 -211.5l35 -330h-640z" />
<glyph unicode="&#x212e;" horiz-adv-x="1302" d="M82 563q0 267 158.5 433t401.5 166q227 0 388 -150.5t173 -448.5h-877v-393q128 -129 316 -129q270 0 419 261l76 -45q-125 -181 -245 -237t-250 -56q-246 0 -403 168t-157 431zM326 641h632v315q-131 128 -318 128q-185 0 -314 -129v-314z" />
<glyph unicode="&#x215b;" horiz-adv-x="1910" d="M20 1093v192q245 65 317 176h168v-712h228v-170h-707v170h252v469q-152 -85 -258 -125zM445 0l801 1447h169l-802 -1447h-168zM1127 239q0 135 156 192q-124 67 -124 193q0 107 91.5 183t254.5 76q157 0 248.5 -66t91.5 -166q0 -121 -128 -181q160 -64 160 -211 q0 -117 -100.5 -193.5t-288.5 -76.5q-175 0 -268 70.5t-93 179.5zM1337 248q0 -107 162 -107q154 0 154 85q0 33 -29 60.5t-179 71.5q-108 -30 -108 -110zM1381 655q0 -35 29.5 -60t145.5 -61q85 24 85 101q0 105 -143 105q-117 0 -117 -85z" />
<glyph unicode="&#x215c;" horiz-adv-x="1910" d="M28 840l210 27q27 -133 161 -133q61 0 98.5 29t37.5 79q0 54 -35.5 79t-132.5 25h-92v163h104q136 0 136 94q0 37 -31 67t-86 30q-110 0 -137 -112l-206 31q25 106 118.5 174t230.5 68q143 0 240.5 -64t97.5 -174q0 -135 -141 -188q169 -49 169 -205q0 -116 -97 -190 t-269 -74q-166 0 -261.5 78t-114.5 196zM471 0l801 1447h169l-802 -1447h-168zM1127 239q0 135 156 192q-124 67 -124 193q0 107 91.5 183t254.5 76q157 0 248.5 -66t91.5 -166q0 -121 -128 -181q160 -64 160 -211q0 -117 -100.5 -193.5t-288.5 -76.5q-175 0 -268 70.5 t-93 179.5zM1337 248q0 -107 162 -107q154 0 154 85q0 33 -29 60.5t-179 71.5q-108 -30 -108 -110zM1381 655q0 -35 29.5 -60t145.5 -61q85 24 85 101q0 105 -143 105q-117 0 -117 -85z" />
<glyph unicode="&#x215d;" horiz-adv-x="1910" d="M37 822l217 30q27 -114 151 -114q65 0 103 37t38 87q0 51 -40.5 89t-98.5 38q-85 0 -130 -68l-188 29l37 497h599l-25 -189h-405l-13 -165q71 63 190 63q131 0 218.5 -80t87.5 -200q0 -135 -96 -222.5t-271 -87.5q-302 0 -374 256zM462 0l801 1447h169l-802 -1447h-168z M1102 239q0 135 156 192q-124 67 -124 193q0 107 91.5 183t254.5 76q157 0 248.5 -66t91.5 -166q0 -121 -128 -181q160 -64 160 -211q0 -117 -100.5 -193.5t-288.5 -76.5q-175 0 -268 70.5t-93 179.5zM1312 248q0 -107 162 -107q154 0 154 85q0 33 -29 60.5t-179 71.5 q-108 -30 -108 -110zM1356 655q0 -35 29.5 -60t145.5 -61q85 24 85 101q0 105 -143 105q-117 0 -117 -85z" />
<glyph unicode="&#x215e;" horiz-adv-x="1910" d="M58 1256l18 191h662v-162q-119 -123 -191 -293t-72 -343q0 -25 3 -70h-263q2 132 34.5 243.5t108.5 234t159 199.5h-459zM369 0l801 1447h169l-802 -1447h-168zM1098 239q0 135 156 192q-124 67 -124 193q0 107 91.5 183t254.5 76q157 0 248.5 -66t91.5 -166 q0 -121 -128 -181q160 -64 160 -211q0 -117 -100.5 -193.5t-288.5 -76.5q-175 0 -268 70.5t-93 179.5zM1308 248q0 -107 162 -107q154 0 154 85q0 33 -29 60.5t-179 71.5q-108 -30 -108 -110zM1352 655q0 -35 29.5 -60t145.5 -61q85 24 85 101q0 105 -143 105 q-117 0 -117 -85z" />
<glyph unicode="&#x2190;" horiz-adv-x="2170" d="M84 528v48q187 75 438 353h80q-86 -181 -207 -328h1691v-107h-1691q109 -108 210 -328h-82q-237 269 -439 362z" />
<glyph unicode="&#x2191;" horiz-adv-x="1085" d="M162 901v81q278 251 353 437h49q92 -202 360 -439v-81q-219 101 -327 209v-1563h-107v1563q-148 -121 -328 -207z" />
<glyph unicode="&#x2192;" horiz-adv-x="2170" d="M84 494v107h1690q-120 147 -206 328h80q252 -278 438 -353v-48q-202 -93 -439 -362h-81q100 220 208 328h-1690z" />
<glyph unicode="&#x2193;" horiz-adv-x="1085" d="M162 -17v81q180 -86 328 -207v1562h107v-1562q108 108 327 209v-82q-268 -236 -360 -439h-49q-75 187 -353 438z" />
<glyph unicode="&#x2194;" horiz-adv-x="2170" d="M84 525v47q193 84 430 359h85q-73 -183 -206 -330h1384q-133 147 -206 330h85q238 -275 430 -359v-47q-192 -84 -430 -358h-85q73 183 206 330h-1384q133 -147 206 -330h-85q-237 274 -430 358z" />
<glyph unicode="&#x2195;" horiz-adv-x="1085" d="M161 -21v84q181 -73 330 -206v1384q-149 -133 -330 -206v84q274 239 357 432h48q84 -193 357 -432v-84q-181 73 -329 206v-1384q148 133 329 206v-84q-273 -239 -357 -432h-48q-83 193 -357 432z" />
<glyph unicode="&#x21a8;" horiz-adv-x="1085" d="M161 -21v84q181 -73 330 -206v1384q-149 -133 -330 -206v84q274 239 357 432h48q84 -193 357 -432v-84q-181 73 -329 206v-1384q148 133 329 206v-84q-273 -239 -357 -432h-48q-83 193 -357 432zM163 -553h760v-104h-760v104z" />
<glyph unicode="&#x2202;" horiz-adv-x="1072" d="M70 323q0 254 176.5 446t406.5 192q235 0 331 -201h4q11 153 11 197q0 186 -98.5 293t-268.5 107q-206 0 -319 -170h-48q139 321 402 321q170 0 279 -134.5t109 -398.5q0 -379 -174.5 -693.5t-453.5 -314.5q-164 0 -260.5 96.5t-96.5 259.5zM247 280q0 -115 57 -183 t152 -68q144 0 296 172t214 466q-86 238 -301 238q-189 0 -303.5 -202t-114.5 -423z" />
<glyph unicode="&#x2206;" horiz-adv-x="1328" d="M13 0l695 1494l612 -1494h-1307zM156 106h894l-420 1017z" />
<glyph unicode="&#x220f;" horiz-adv-x="1787" d="M54 -170q129 0 170 43.5t41 132.5v1359q0 107 -51.5 161t-155.5 54v50h1681v-50q-103 0 -154.5 -54t-51.5 -161v-1359q0 -89 40.5 -132.5t170.5 -43.5v-49h-667v49q127 0 169 43.5t42 132.5v1504h-778v-1504q0 -89 42 -132.5t169 -43.5v-49h-667v49z" />
<glyph unicode="&#x2211;" horiz-adv-x="1547" d="M31 -217l757 864l-753 985q74 -7 130.5 -10.5t95.5 -3.5h1079l13 -346h-44q-33 108 -55.5 149.5t-86.5 69.5q-32 14 -79 21.5t-111 7.5h-571l593 -778l-639 -736h806q135 0 188.5 55.5t104.5 190.5h49q-34 -132 -57 -254t-36 -232q-67 11 -108.5 17t-57.5 6h-1093 q-21 0 -62.5 -3t-62.5 -3z" />
<glyph unicode="&#x2212;" horiz-adv-x="1273" d="M101 615v232h1072v-232h-1072z" />
<glyph unicode="&#x2215;" horiz-adv-x="231" d="M-369 0l801 1447h169l-802 -1447h-168z" />
<glyph unicode="&#x2219;" horiz-adv-x="327" d="M0 389v321h328v-321h-328z" />
<glyph unicode="&#x221a;" horiz-adv-x="1191" d="M21 977l317 156l428 -874l276 1732l76 -11l-325 -2063l-528 1090l-209 -102z" />
<glyph unicode="&#x221e;" horiz-adv-x="1547" d="M56 560q0 166 94.5 277.5t231.5 111.5q84 0 157.5 -44.5t152.5 -196.5q75 179 168.5 236t224.5 57q171 0 288.5 -123.5t117.5 -319.5q0 -198 -118 -322t-253 -124q-100 0 -180 67t-176 238q-124 -247 -343 -247q-158 0 -261.5 110.5t-103.5 279.5zM116 562 q0 -131 70.5 -220.5t171.5 -89.5q87 0 158.5 69t134.5 269l11 35q-101 228 -283 228q-116 0 -189.5 -81t-73.5 -210zM795 493q68 -146 142.5 -213t187.5 -67q133 0 219.5 96.5t86.5 248.5q0 148 -89 254t-211 106q-58 0 -103 -23t-79 -65.5t-68 -123.5z" />
<glyph unicode="&#x221f;" horiz-adv-x="2125" d="M384 0v1356h106v-1250h1252v-106h-1358z" />
<glyph unicode="&#x2229;" horiz-adv-x="1560" d="M204 0v501q0 281 13.5 395.5t80.5 222.5t199.5 182t282.5 74q153 0 285 -74.5t197 -177.5t80.5 -218.5t15.5 -403.5v-501h-116v509q0 246 -12.5 353t-63.5 193.5t-158.5 146.5t-227.5 60q-121 0 -228.5 -61t-156.5 -145t-62 -192.5t-13 -354.5v-509h-116z" />
<glyph unicode="&#x222b;" horiz-adv-x="594" d="M11 -105q0 40 27 69t68 29q36 0 69.5 -35t47.5 -35q26 0 41.5 47t15.5 162q0 40 -6.5 209.5t-6.5 595.5q0 510 18 677t44 228q30 74 72.5 110.5t89.5 36.5q60 0 103.5 -34.5t43.5 -88.5q0 -42 -31 -68.5t-80 -26.5q-39 0 -63.5 26.5t-46.5 26.5q-19 0 -29.5 -15 t-10.5 -46q0 -36 21 -271.5t21 -584.5q0 -535 -32 -751.5t-84 -299.5q-27 -44 -71 -66t-91 -22q-52 0 -91 37t-39 90z" />
<glyph unicode="&#x2248;" horiz-adv-x="1273" d="M108 394q71 179 148 243t183 64q71 0 227 -59q135 -49 182 -49q93 0 152 108l165 -99q-125 -294 -347 -294q-55 0 -215 57q-142 49 -180 49q-94 0 -154 -126zM108 846q70 178 147 241.5t185 63.5q69 0 226 -56q136 -50 181 -50q94 0 153 108l165 -98q-125 -296 -346 -296 q-57 0 -216 57q-141 51 -181 51q-93 0 -153 -127z" />
<glyph unicode="&#x2260;" horiz-adv-x="1273" d="M166 354v266h299l76 143h-375v265h493l123 241l188 -99l-74 -142h211v-265h-330l-74 -143h404v-266h-521l-108 -210l-188 98l59 112h-183z" />
<glyph unicode="&#x2261;" horiz-adv-x="1446" d="M215 139v94h1137v-94h-1137zM215 631v93h1137v-93h-1137zM215 1121v95h1137v-95h-1137z" />
<glyph unicode="&#x2264;" horiz-adv-x="1273" d="M145 0v267h940v-267h-940zM145 767v251l940 437v-278l-622 -286l622 -284v-278z" />
<glyph unicode="&#x2265;" horiz-adv-x="1273" d="M188 0v267h940v-267h-940zM188 329v278l623 286l-623 284v278l940 -438v-251z" />
<glyph unicode="&#x2302;" horiz-adv-x="1302" d="M162 0v672l489 550l490 -550v-672h-979zM248 86h807v550l-404 453l-403 -453v-550z" />
<glyph unicode="&#x2310;" horiz-adv-x="1273" d="M166 0v587h941v-268h-643v-319h-298z" />
<glyph unicode="&#x2320;" horiz-adv-x="1311" d="M579 -546v1920q0 232 94.5 349.5t214.5 117.5q71 0 109 -34.5t38 -80.5q0 -43 -27.5 -70.5t-66.5 -27.5q-32 0 -60 16q-19 11 -44 49.5t-49 38.5q-18 0 -33 -13q-11 -8 -15 -28q-8 -35 -8 -148v-2089h-153z" />
<glyph unicode="&#x2321;" horiz-adv-x="1311" d="M277 -430q0 42 27 69.5t65 27.5q33 0 62 -17q19 -10 43.5 -48.5t49.5 -38.5q18 0 32 12q11 8 15 31q8 34 8 146v2089h153v-1919q0 -233 -94.5 -350.5t-214.5 -117.5q-71 0 -108.5 34.5t-37.5 81.5z" />
<glyph unicode="&#x2500;" d="M-24 566v186h1585v-186h-1585z" />
<glyph unicode="&#x2502;" d="M676 -658v2634h186v-2634h-186z" />
<glyph unicode="&#x250c;" d="M676 -658v1410h886v-186h-700v-1224h-186z" />
<glyph unicode="&#x2510;" d="M-24 566v186h885v-1410h-186v1224h-699z" />
<glyph unicode="&#x2514;" d="M676 566v1410h186v-1224h700v-186h-886z" />
<glyph unicode="&#x2518;" d="M-24 566v186h699v1224h186v-1410h-885z" />
<glyph unicode="&#x251c;" d="M676 -658v2634h186v-1224h700v-186h-700v-1224h-186z" />
<glyph unicode="&#x2524;" d="M-24 566v186h699v1224h186v-2634h-186v1224h-699z" />
<glyph unicode="&#x252c;" d="M-24 566v186h1585v-186h-700v-1224h-186v1224h-699z" />
<glyph unicode="&#x2534;" d="M-24 566v186h699v1224h186v-1224h700v-186h-1585z" />
<glyph unicode="&#x253c;" d="M-24 566v186h699v1224h186v-1224h700v-186h-700v-1224h-186v1224h-699z" />
<glyph unicode="&#x2550;" d="M-24 365v185h1585v-185h-1585zM-24 767v186h1585v-186h-1585z" />
<glyph unicode="&#x2551;" d="M475 -658v2634h185v-2634h-185zM879 -658v2634h185v-2634h-185z" />
<glyph unicode="&#x2552;" d="M676 -658v1611h886v-186h-700v-217h700v-185h-700v-1023h-186z" />
<glyph unicode="&#x2553;" d="M475 -658v1410h1089v-186h-500v-1224h-185v1224h-219v-1224h-185z" />
<glyph unicode="&#x2554;" d="M475 -658v1611h1087v-186h-902v-1425h-185zM879 550h683v-185h-498v-1023h-185v1208z" />
<glyph unicode="&#x2555;" d="M-24 365v185h699v217h-699v186h885v-1611h-186v1023h-699z" />
<glyph unicode="&#x2556;" d="M-24 566v186h1087v-1410h-185v1224h-219v-1224h-184v1224h-499z" />
<glyph unicode="&#x2557;" d="M-24 365v185h683v-1208h-185v1023h-498zM-24 767v186h1087v-1611h-185v1425h-902z" />
<glyph unicode="&#x2558;" d="M676 365v1611h186v-1023h700v-186h-700v-217h700v-185h-886z" />
<glyph unicode="&#x2559;" d="M475 566v1410h185v-1224h219v1224h185v-1224h500v-186h-1089z" />
<glyph unicode="&#x255a;" d="M475 365v1611h185v-1426h901v-185h-1086zM879 767v1209h185v-1023h498v-186h-683z" />
<glyph unicode="&#x255b;" d="M-24 365v185h699v217h-699v186h699v1023h186v-1611h-885z" />
<glyph unicode="&#x255c;" d="M-24 566v186h498v1224h185v-1224h219v1224h185v-1410h-1087z" />
<glyph unicode="&#x255d;" d="M-24 365v185h902v1426h185v-1611h-1087zM-24 767v186h498v1023h185v-1209h-683z" />
<glyph unicode="&#x255e;" d="M676 -658v2634h186v-1023h700v-186h-700v-217h700v-185h-700v-1023h-186z" />
<glyph unicode="&#x255f;" d="M475 -658v2634h185v-2634h-185zM879 -658v2634h185v-1224h498v-186h-498v-1224h-185z" />
<glyph unicode="&#x2560;" d="M475 -658v2634h185v-2634h-185zM879 550h683v-185h-498v-1023h-185v1208zM879 767v1209h185v-1023h498v-186h-683z" />
<glyph unicode="&#x2561;" d="M-24 365v185h699v217h-699v186h699v1023h186v-2634h-186v1023h-699z" />
<glyph unicode="&#x2562;" d="M-24 566v186h498v1224h185v-2634h-185l1 1224h-499zM878 -658v2634h185v-2634h-185z" />
<glyph unicode="&#x2563;" d="M-24 365v185h683v-1208h-185v1023h-498zM-24 767v186h498v1023h185v-1209h-683zM878 -658v2634h185v-2634h-185z" />
<glyph unicode="&#x2564;" d="M-24 365v185h1585v-185h-700v-1023h-186v1023h-699zM-24 767v186h1585v-186h-1585z" />
<glyph unicode="&#x2565;" d="M-24 566v186h1585v-186h-498v-1224h-185v1224h-219v-1224h-185v1224h-498z" />
<glyph unicode="&#x2566;" d="M-24 365v185h683v-1208h-185v1023h-498zM-24 767v186h1585v-186h-1585zM878 550h683v-185h-498v-1023h-185v1208z" />
<glyph unicode="&#x2567;" d="M-24 365v185h1585v-185h-1585zM-24 767v186h699v1023h186v-1023h700v-186h-1585z" />
<glyph unicode="&#x2568;" d="M-24 566v186h498v1224h185v-1224h219v1224h185v-1224h498v-186h-1585z" />
<glyph unicode="&#x2569;" d="M-24 365v185h1585v-185h-1585zM-24 767v186h498v1023h185v-1209h-683zM878 767v1209h185v-1023h498v-186h-683z" />
<glyph unicode="&#x256a;" d="M-24 365v185h699v217h-699v186h699v1023h186v-1023h700v-186h-700v-217h700v-185h-700v-1023h-186v1023h-699z" />
<glyph unicode="&#x256b;" d="M-24 566v186h498v1224h185v-1224h219v1224h185v-1224h498v-186h-498v-1224h-185v1224h-219v-1224h-185v1224h-498z" />
<glyph unicode="&#x256c;" d="M-24 365v185h683v-1208h-185v1023h-498zM-24 767v186h498v1023h185v-1209h-683zM878 550h683v-185h-498v-1023h-185v1208zM878 767v1209h185v-1023h498v-186h-683z" />
<glyph unicode="&#x2580;" d="M-24 658v1318h1585v-1318h-1585z" />
<glyph unicode="&#x2584;" d="M-24 -658v1316h1585v-1316h-1585z" />
<glyph unicode="&#x2588;" d="M-24 -658v2634h1585v-2634h-1585z" />
<glyph unicode="&#x258c;" d="M-24 -658v2634h792v-2634h-792z" />
<glyph unicode="&#x2590;" d="M770 -658v2634h792v-2634h-792z" />
<glyph unicode="&#x2591;" d="M0 -138h128v-132h-128v132zM0 259v132h128v-132h-128zM0 787v132h128v-132h-128zM0 1315v133h128v-133h-128zM0 1843v133h128v-133h-128zM255 -5v132h129v-132h-129zM255 -402h129v-132h-129v132zM255 523v132h129v-132h-129zM255 1052v132h129v-132h-129zM255 1579v133 h129v-133h-129zM511 -138h128v-132h-128v132zM511 259v132h128v-132h-128zM511 787v132h128v-132h-128zM511 1315v133h128v-133h-128zM511 1843v133h128v-133h-128zM766 -5v132h129v-132h-129zM766 -402h129v-132h-129v132zM766 523v132h129v-132h-129zM766 1052v132h129 v-132h-129zM766 1579v133h129v-133h-129zM1023 -138h128v-132h-128v132zM1023 259v132h128v-132h-128zM1023 787v132h128v-132h-128zM1023 1315v133h128v-133h-128zM1023 1843v133h128v-133h-128zM1278 -5v132h129v-132h-129zM1278 -402h129v-132h-129v132zM1278 523v132 h129v-132h-129zM1278 1052v132h129v-132h-129zM1278 1579v133h129v-133h-129z" />
<glyph unicode="&#x2592;" d="M0 -5v131h128v-131h-128zM0 -402h128v-132h-128v132zM0 523v132h128v-132h-128zM0 1052v131h128v-131h-128zM0 1579v133h128v-133h-128zM128 -138h127v-132h-127v132zM128 259v132h127v-132h-127zM128 787v132h127v-132h-127zM128 1315v133h127v-133h-127zM128 1843v133 h127v-133h-127zM255 -5v131h129v-131h-129zM255 -402h129v-132h-129v132zM255 523v132h129v-132h-129zM255 1052v131h129v-131h-129zM255 1579v133h129v-133h-129zM384 -138h127v-132h-127v132zM384 259v132h127v-132h-127zM384 787v132h127v-132h-127zM384 1315v133h127 v-133h-127zM384 1843v133h127v-133h-127zM511 -5v131h128v-131h-128zM511 -402h128v-132h-128v132zM511 523v132h128v-132h-128zM511 1052v131h128v-131h-128zM511 1579v133h128v-133h-128zM639 -138h128v-132h-128v132zM639 259v132h128v-132h-128zM639 787v132h128v-132 h-128zM639 1315v133h128v-133h-128zM639 1843v133h128v-133h-128zM767 -5v131h128v-131h-128zM767 -402h128v-132h-128v132zM767 523v132h128v-132h-128zM767 1052v131h128v-131h-128zM767 1579v133h128v-133h-128zM895 -138h128v-132h-128v132zM895 259v132h128v-132h-128z M895 787v132h128v-132h-128zM895 1315v133h128v-133h-128zM895 1843v133h128v-133h-128zM1023 -5v131h128v-131h-128zM1023 -403l128 1v-132h-128v131zM1023 523v132h128v-132h-128zM1023 1052v131h128v-131h-128zM1023 1579v133h128v-133h-128zM1151 -138h127v-132h-127 v132zM1151 259v132h127v-132h-127zM1151 787v132h127v-132h-127zM1151 1315v133h127v-133h-127zM1151 1843v133h127v-133h-127zM1278 -5v131h129v-131h-129zM1278 -402h129v-132h-129v132zM1278 523v132h129v-132h-129zM1278 1052v131h129v-131h-129zM1278 1579v133h129 v-133h-129zM1407 -138h127v-132h-127v132zM1407 259v132h127v-132h-127zM1407 787v132h127v-132h-127zM1407 1315v133h127v-133h-127zM1407 1843v133h127v-133h-127z" />
<glyph unicode="&#x2593;" d="M0 -138v397h128v132h-128v396h128v132h-128v396h128v133h-128v395h128v133h127v-133h129v133h127v-133h128v133h128v-133h128v133h128v-133h128v133h127v-133h129v133h127v-264h-127v-133h127v-396h-127v-131h127v-397h-127v-132h127v-397h-127v-131h127v-397h-127v-132 h127v-132h-1534v396h128v132h-128zM128 -5h127v131h-127v-131zM128 -402v-132h127v132h-127zM128 523h127v132h-127v-132zM128 1052h127v131h-127v-131zM128 1579h127v133h-127v-133zM255 -138v-132h129v132h-129zM255 259h129v132h-129v-132zM255 787h129v132h-129v-132z M255 1315h129v133h-129v-133zM384 -5h127v131h-127v-131zM384 -402v-132h127v132h-127zM384 523h127v132h-127v-132zM384 1052h127v131h-127v-131zM384 1579h127v133h-127v-133zM511 -138v-132h128v132h-128zM511 259h128v132h-128v-132zM511 787h128v132h-128v-132z M511 1315h128v133h-128v-133zM639 -5h128v131h-128v-131zM639 -402v-132h128v132h-128zM639 523h128v132h-128v-132zM639 1052h128v131h-128v-131zM639 1579h128v133h-128v-133zM767 -138v-132h128v132h-128zM767 259h128v132h-128v-132zM767 787h128v132h-128v-132z M767 1315h128v133h-128v-133zM895 -5h128v131h-128v-131zM895 -402v-132h128v132h-128zM895 523h128v132h-128v-132zM895 1052h128v131h-128v-131zM895 1579h128v133h-128v-133zM1023 -138v-132h128v132h-128zM1023 259h128v132h-128v-132zM1023 787h128v132h-128v-132z M1023 1315h128v133h-128v-133zM1151 -5h127v131h-127v-131zM1151 -402v-132h127v132h-127zM1151 523h127v132h-127v-132zM1151 1052h127v131h-127v-131zM1151 1579h127v133h-127v-133zM1278 -138v-132h129v132h-129zM1278 259h129v132h-129v-132zM1278 787h129v132h-129 v-132zM1278 1315h129v133h-129v-133z" />
<glyph unicode="&#x25a0;" horiz-adv-x="1311" d="M155 0v1001h1000v-1001h-1000z" />
<glyph unicode="&#x25a1;" horiz-adv-x="1311" d="M155 0v1001h1000v-1001h-1000zM235 81h840v839h-840v-839z" />
<glyph unicode="&#x25aa;" horiz-adv-x="770" d="M98 429v576h575v-576h-575z" />
<glyph unicode="&#x25ab;" horiz-adv-x="770" d="M98 429v576h575v-576h-575zM178 510h415v414h-415v-414z" />
<glyph unicode="&#x25ac;" horiz-adv-x="2170" d="M0 336v409h2170v-409h-2170z" />
<glyph unicode="&#x25b2;" horiz-adv-x="2148" d="M322 0l753 1504l752 -1504h-1505z" />
<glyph unicode="&#x25ba;" horiz-adv-x="2148" d="M305 -33v1535l1538 -767z" />
<glyph unicode="&#x25bc;" horiz-adv-x="2148" d="M322 1471h1505l-752 -1504z" />
<glyph unicode="&#x25c4;" horiz-adv-x="2148" d="M305 735l1538 767v-1535z" />
<glyph unicode="&#x25ca;" horiz-adv-x="1072" d="M49 809l421 809h129l421 -809l-421 -809h-129zM179 809l355 -691l355 691l-355 691z" />
<glyph unicode="&#x25cb;" horiz-adv-x="1311" d="M189 613q0 122 62.5 233.5t174.5 172t230 60.5q117 0 229 -60.5t175 -172.5t63 -233q0 -194 -137 -331t-330 -137q-194 0 -330.5 137t-136.5 331zM269 613q0 -160 113.5 -273.5t273.5 -113.5t273 113.5t113 273.5q0 99 -52 192.5t-144 143.5t-190 50t-190.5 -50 t-144.5 -143.5t-52 -192.5z" />
<glyph unicode="&#x25cf;" horiz-adv-x="1311" d="M189 613q0 193 137 329.5t330 136.5q192 0 329.5 -137t137.5 -329q0 -193 -137.5 -330.5t-329.5 -137.5q-194 0 -330.5 137t-136.5 331z" />
<glyph unicode="&#x25d8;" horiz-adv-x="1311" d="M136 0v1039h1038v-1039h-1038zM441 519q0 -88 63 -151t151 -63q89 0 151.5 63t62.5 151q0 89 -62.5 152t-151.5 63t-151.5 -63t-62.5 -152z" />
<glyph unicode="&#x25d9;" horiz-adv-x="1311" d="M45 0v1224h1224v-1224h-1224zM190 612q0 -193 136.5 -330t329.5 -137q194 0 331 137t137 330q0 122 -62.5 234t-174.5 172.5t-231 60.5q-118 0 -229.5 -60.5t-174 -172.5t-62.5 -234zM270 612q0 101 52 194t145 143t190 50t189.5 -50t144.5 -143t52 -194 q0 -160 -113 -273t-273 -113q-161 0 -274 113t-113 273z" />
<glyph unicode="&#x25e6;" horiz-adv-x="770" d="M83 717q0 125 89 214t214 89t213.5 -89t88.5 -214q0 -126 -88.5 -215t-213.5 -89t-214 89t-89 215zM163 717q0 -92 65.5 -157.5t157.5 -65.5t157 65.5t65 157.5t-65.5 157t-156.5 65t-157 -65t-66 -157z" />
<glyph unicode="&#x263a;" horiz-adv-x="2170" d="M409 549q0 176 90.5 338.5t253 250t332.5 87.5t332 -87.5t253.5 -250t91.5 -338.5q0 -175 -89.5 -335.5t-251 -250t-336.5 -89.5q-176 0 -336.5 89.5t-250 250t-89.5 335.5zM508 549q0 -149 76 -286.5t214 -214t287 -76.5q150 0 287.5 76.5t214 214t76.5 286.5 q0 151 -78 289.5t-216 213.5t-284 75q-145 0 -283 -75t-216 -213.5t-78 -289.5zM740 689q0 36 25.5 61t60.5 25q36 0 61 -25t25 -61q0 -35 -25 -60.5t-61 -25.5q-35 0 -60.5 25.5t-25.5 60.5zM774 332l66 38q83 -153 245 -153q163 0 245 153l67 -38q-53 -101 -131 -154 t-181 -53t-180.5 53t-130.5 154zM1258 689q0 36 25 61t61 25t61 -25t25 -61q0 -35 -25 -60.5t-61 -25.5q-35 0 -60.5 25.5t-25.5 60.5z" />
<glyph unicode="&#x263b;" horiz-adv-x="2170" d="M409 549q0 176 90.5 338.5t253 250t332.5 87.5t332 -87.5t253.5 -250t91.5 -338.5q0 -175 -89.5 -335.5t-251 -250t-336.5 -89.5q-176 0 -336.5 89.5t-250 250t-89.5 335.5zM740 689q0 -35 25.5 -60.5t60.5 -25.5q36 0 61 25.5t25 60.5q0 36 -25 61t-61 25 q-35 0 -60.5 -25t-25.5 -61zM774 332q53 -101 130.5 -154t180.5 -53t181 53t131 154l-67 38q-82 -153 -245 -153q-162 0 -245 153zM1258 689q0 -35 25.5 -60.5t60.5 -25.5q36 0 61 25.5t25 60.5q0 36 -25 61t-61 25t-61 -25t-25 -61z" />
<glyph unicode="&#x263c;" horiz-adv-x="1989" d="M17 705v73h356q10 112 45 196.5t108 173.5l-301 304l51 61l309 -299q107 74 190.5 106.5t180.5 40.5v357h81v-357q108 -7 192 -40.5t178 -108.5l307 301l55 -57l-303 -303q77 -100 109 -179q40 -102 44 -196h355v-73h-355q-21 -205 -152 -372l302 -309l-60 -53l-300 299 q-104 -76 -181.5 -106t-190.5 -43v-357h-81v357q-119 16 -200 48.5t-166 97.5l-311 -295l-54 54l302 304q-70 89 -106 176t-48 199h-356zM450 741q0 -141 72 -270.5t201 -201.5t270 -72t270.5 72t201.5 201.5t72 270.5t-73 272t-203.5 201t-267.5 70t-267 -70t-203 -201 t-73 -272z" />
<glyph unicode="&#x2640;" horiz-adv-x="1628" d="M259 1042q0 144 73.5 276.5t205 205.5t276.5 73q144 0 276 -73.5t205 -205.5t73 -276q0 -222 -152 -382.5t-372 -170.5v-426h486v-63h-486v-465h-63v465h-487v63h487v426q-109 0 -239 69.5t-206.5 202.5t-76.5 281zM316 1041q0 -207 145.5 -352.5t351.5 -145.5 q207 0 352.5 145.5t145.5 352.5q0 129 -66.5 249t-186 184t-245.5 64q-125 0 -244.5 -64t-186 -184t-66.5 -249z" />
<glyph unicode="&#x2642;" horiz-adv-x="1628" d="M118 278q0 230 162.5 392t394.5 162q83 0 176 -29l382 818l-569 -281l-26 56l651 321l38 -17l173 -706l-61 -16l-150 616l-380 -814q157 -79 237.5 -214t80.5 -288q0 -144 -73 -276t-205 -206t-277 -74q-144 0 -276 74t-205 206t-73 276zM175 278q0 -207 145.5 -352.5 t351.5 -145.5q207 0 352.5 145.5t145.5 352.5q0 129 -66.5 249t-186 184t-245.5 64q-125 0 -244.5 -64t-186 -184t-66.5 -249z" />
<glyph unicode="&#x2660;" horiz-adv-x="1424" d="M197 524q0 78 34 141q48 88 155.5 176t158.5 145q78 88 113.5 157t54.5 162q28 -115 85 -205t204 -223t186 -204.5t39 -144.5q0 -101 -67.5 -168.5t-163.5 -67.5q-87 0 -163 60q-57 44 -107 141q1 -156 41 -247.5t126.5 -144t232.5 -62.5l7 -39h-839l7 39 q195 0 302.5 114t103.5 340q-48 -101 -118.5 -151t-158.5 -50q-95 0 -164 68.5t-69 163.5z" />
<glyph unicode="&#x2663;" horiz-adv-x="1424" d="M58 586q0 123 78.5 207.5t175.5 86.5q66 -2 176 -56q-45 73 -58 111t-13 82q0 121 83.5 204.5t209.5 83.5q124 0 209.5 -83.5t85.5 -200.5q0 -93 -73 -197q89 42 107 47q28 9 64 9q106 0 184 -83.5t78 -206.5q0 -127 -85 -213.5t-208 -87.5q-82 5 -143 35.5t-114 84.5 q-37 39 -92 133q4 -169 51.5 -267t144.5 -163q66 -43 236 -76l9 -36h-899l8 36q175 37 233 73q85 54 140 160t55 223q0 17 -1 50q-65 -132 -158 -192.5t-189 -60.5q-123 0 -209 86t-86 211z" />
<glyph unicode="&#x2665;" horiz-adv-x="1424" d="M135 1027q0 118 78.5 197.5t190.5 80.5q120 -1 206 -84q64 -61 104 -183q34 118 98 181q88 86 202 86q116 0 196 -78.5t80 -186.5q0 -97 -46 -199.5t-181 -272.5q-174 -219 -253 -360q-63 -112 -96 -233q-32 125 -93 234.5t-236 340.5q-128 170 -158 215 q-49 75 -70.5 137t-21.5 125z" />
<glyph unicode="&#x2666;" horiz-adv-x="1424" d="M226 640q107 122 275 348q125 167 210 320q94 -163 231 -347q159 -212 257 -321q-79 -82 -257 -320q-144 -193 -231 -345q-28 55 -78 128q-86 127 -213 296q-28 37 -194 241z" />
<glyph unicode="&#x266a;" horiz-adv-x="1085" d="M39 197q0 111 80.5 187t211.5 76q82 0 184 -49v1034h40q183 0 241 -15q84 -21 147 -82q48 -44 75.5 -125t27.5 -189v-110h-105v46q0 72 -30 122.5t-89 76.5q-78 34 -172 34h-30v-885q0 -128 -34 -199.5t-116.5 -114.5t-180.5 -43q-115 0 -182.5 65t-67.5 171z" />
<glyph unicode="&#x266b;" horiz-adv-x="1628" d="M90 100q0 111 80.5 187t211.5 76q82 0 184 -49v1033l844 263v-1174q0 -132 -33.5 -198.5t-113.5 -110t-181 -43.5q-115 0 -184 66t-69 171q0 106 81.5 183t210.5 77q43 0 75.5 -7.5t105.5 -38.5v768l-631 -196v-887q0 -128 -34 -199.5t-116.5 -114t-180.5 -42.5 q-115 0 -182.5 65.5t-67.5 170.5z" />
<glyph unicode="&#xe000;" horiz-adv-x="1070" d="M0 1070h1070v-1070h-1070v1070z" />
<glyph unicode="&#xf001;" horiz-adv-x="1217" d="M29 825v246h124q2 165 23.5 241t111.5 134.5t245 58.5q64 0 146 -11v-244q-67 5 -112 5q-65 0 -86 -34t-21 -110v-40h194v-246h-194v-825h-307v825h-124zM770 0v1071h316v-1071h-316zM770 1161v316h316v-316h-316z" />
<glyph unicode="&#xf002;" horiz-adv-x="1217" d="M29 825v246h124q2 165 23.5 241t111.5 134.5t245 58.5q64 0 146 -11v-244q-67 5 -112 5q-65 0 -86 -34t-21 -110v-40h194v-246h-194v-825h-307v825h-124zM770 0v1447h316v-1447h-316z" />
<glyph unicode="&#xf003;" horiz-adv-x="839" d="M41 777v159l378 525h259v-521h131v-163h-131v-198h-220v198h-417zM216 931h249v357z" />
<glyph unicode="&#xf004;" horiz-adv-x="1085" d="M447 1020l59 427h247l-194 -427h-112z" />
<glyph unicode="&#xf005;" horiz-adv-x="1085" d="M376 -523l59 407h246l-193 -407h-112z" />
<glyph unicode="&#xf006;" horiz-adv-x="1268" d="M39 841v230h1192v-230h-126v-841h-316v841h-309v-841h-315v841h-126z" />
<glyph unicode="&#xf007;" horiz-adv-x="839" d="M37 822l217 30q27 -114 151 -114q65 0 103 37t38 87q0 51 -40.5 89t-98.5 38q-85 0 -130 -68l-188 29l37 497h599l-25 -189h-405l-13 -165q71 63 190 63q131 0 218.5 -80t87.5 -200q0 -135 -96 -222.5t-271 -87.5q-302 0 -374 256z" />
<glyph unicode="&#xf008;" horiz-adv-x="839" d="M58 1256l18 191h662v-162q-119 -123 -191 -293t-72 -343q0 -25 3 -70h-263q2 132 34.5 243.5t108.5 234t159 199.5h-459z" />
<glyph unicode="&#xf009;" horiz-adv-x="839" d="M42 818q0 135 156 192q-124 67 -124 193q0 107 91.5 183t254.5 76q157 0 248.5 -66t91.5 -166q0 -121 -128 -181q160 -64 160 -211q0 -117 -100.5 -193.5t-288.5 -76.5q-175 0 -268 70.5t-93 179.5zM252 827q0 -107 162 -107q154 0 154 85q0 33 -29 60.5t-179 71.5 q-108 -30 -108 -110zM296 1234q0 -35 29.5 -60t145.5 -61q85 24 85 101q0 105 -143 105q-117 0 -117 -85z" />
<glyph unicode="&#xfb01;" horiz-adv-x="1217" d="M29 825v246h124q2 165 23.5 241t111.5 134.5t245 58.5q64 0 146 -11v-244q-67 5 -112 5q-65 0 -86 -34t-21 -110v-40h194v-246h-194v-825h-307v825h-124zM770 0v1071h316v-1071h-316zM770 1161v316h316v-316h-316z" />
<glyph unicode="&#xfb02;" horiz-adv-x="1217" d="M29 825v246h124q2 165 23.5 241t111.5 134.5t245 58.5q64 0 146 -11v-244q-67 5 -112 5q-65 0 -86 -34t-21 -110v-40h194v-246h-194v-825h-307v825h-124zM770 0v1447h316v-1447h-316z" />
<glyph horiz-adv-x="0" />
</font>
</defs>
</svg>
